вход на сайт

Имя пользователя :
Пароль :

Восстановление пароля Регистрация
Вероника решает умереть / Veronika Decides to Die (Эмили Янг, Драма 2009) [HDRip - AVC, Профессиональный (полное дублирование)]
Рейтинг:
(голосов: 1)



[img]{THEME}/images/logopost.png[/img]



Вероника решает умереть / Veronika Decides to Die

Слоган: «Иногда нужно умереть, чтобы начать жить»

Год выпуска: 2009
Страна: США
Производство: Das Films
Жанр: Мелодрама, драма

Режиссёр: Эмили Янг
В ролях: Сара Мишель Геллар, Джонатан Такер, Эрика Кристенсен, Флоренция Лозаньо, Рина Оуэн, Эрика Гимпел, Виктор Слезак, Барбара Зукова, Виктор Штейнбах, Мелисса Лео...

Перевод: Профессиональный (полное дублирование) [Лицензия]
Субтитры: русские, английские

Описание: После неудавшейся попытки самоубийства Вероника оказывается в сумасшедшем доме. Когда она окончательно приходит в себя, врачи сообщают ей неутешительную новость: у нее неисправимые проблемы с сердцем и жить ей осталось не так уж и долго. Удастся ли Веронике победить болезнь и вновь обрести желание жить и любить…
Качество: HDRip-AVC
Продолжительность: 01:42:53 час.

MediaInfo ▼General
Complete name : D:bVeronika.reshaet.umeret.2009.D.740MB.HDRip.mkv
Format : Matroska
File size : 738 MiB
Duration : 1h 42mn
Overall bit rate : 1 003 Kbps
Movie name : avproh
Encoded date : UTC 2010-06-15 05:36:14
Writing application : mkvmerge v3.4.0 (Rapunzel) сборка от May 15 2010 09:38:20
Writing library : libebml v0.8.0 + libmatroska v0.9.0

Video
ID : 1
Format : AVC
Format/Info : Advanced Video Codec
Format profile : [email protected]
Format settings, CABAC : Yes
Format settings, ReFrames : 11 frames
Muxing mode : Container [email protected]
Codec ID : V_MPEG4/ISO/AVC
Duration : 1h 42mn
Bit rate : 875 Kbps
Width : 720 pixels
Height : 304 pixels
Display aspect ratio : 2.35:1
Frame rate : 24.000 fps
Color space : YUV
Chroma subsampling : 4:2:0
Bit depth : 8 bits
Scan type : Progressive
Bits/(Pixel*Frame) : 0.167
Stream size : 629 MiB (85%)
Title : AVC
Writing library : x264 core 98 r1629 2e81ce1
Encoding settings : cabac=1 / ref=11 / deblock=1:-2:-1 / analyse=0x3:0x113 / me=umh / subme=9 / psy=1 / psy_rd=1.00:0.10 / mixed_ref=1 / me_range=32 / chroma_me=1 / trellis=1 / 8x8dct=1 / cqm=0 / deadzone=21,11 / fast_pskip=1 / chroma_qp_offset=-3 / threads=4 / sliced_threads=0 / nr=0 / decimate=1 / interlaced=0 / constrained_intra=0 / bframes=6 / b_pyramid=2 / b_adapt=1 / b_bias=0 / direct=3 / weightb=1 / weightp=2 / keyint=250 / keyint_min=25 / scenecut=40 / intra_refresh=0 / rc_lookahead=80 / rc=2pass / mbtree=1 / bitrate=875 / ratetol=1.0 / qcomp=0.60 / qpmin=10 / qpmax=51 / qpstep=4 / cplxblur=20.0 / qblur=0.5 / ip_ratio=1.40 / aq=1:1.00
Language : English

Audio
ID : 2
Format : MPEG Audio
Format version : Version 1
Format profile : Layer 3
Mode : Joint stereo
Mode extension : MS Stereo
Codec ID : A_MPEG/L3
Codec ID/Hint : MP3
Duration : 1h 42mn
Bit rate mode : Constant
Bit rate : 128 Kbps
Channel(s) : 2 channels
Sampling rate : 48.0 KHz
Stream size : 94.2 MiB (13%)
Title : MP3 2.0 128 kbps Dub
Language : Russian

Text #1
ID : 3
Format : UTF-8
Codec ID : S_TEXT/UTF8
Codec ID/Info : UTF-8 Plain Text
Title : Sub Rus
Language : Russian

Text #2
ID : 4
Format : UTF-8
Codec ID : S_TEXT/UTF8
Codec ID/Info : UTF-8 Plain Text
Title : Sub Eng
Language : English

Формат: MKV
Видео кодек: H.264
Аудио кодек: MP3
Видео: 720x304 (2.35:1), 24.000 fps, H.264 ~875 kbps avg, 0.167 bit/pixel
Аудио: 48 kHz, MPEG 1 Layer 3, 2 ch, 128.00 kbps

премьеры ▼премьера (мир) 16 мая 2009
премьера (РФ) 11 марта 2010, «Премиум Фильм»
премьера (Казахстан) 8 апреля 2010

Проверено. [Glava]


864f7a0580173d17e5c4464605741315cd9757b4Вероника решает умереть / Veronika Decides to Die (Эмили Янг, Драма 2009) [HDRip - AVC, Профессиональный (полное дублирование)] Вероника решает умереть / Veronika Decides to Die (Эмили Янг, Драма 2009) [HDRip - AVC, Профессиональный (полное дублирование)] " />

Аплоадер: Админ, дата: 15-06-2010, 20:33, торрент скачан: 359 раз

Понравилась раздача? Посмотрите эти:
  • Gloria Trevi / No Querias Lastimarme [2013, Latin, Pop, HDRip]
  • Eminem / Rap God [2013, Rap, HDRip]
  • Brit Smith feat. Will.i.am / Provocative (Explicit) [2013, Hip-Hop, HDRip]
  • Havana Brown / Warrior [2013, Dance, HDRip]
  • Интервью с вампиром / Interview with the Vampire: The Vampire Chronicles (Н ...
  • Жизнь Пи / Life Of Pi (Энг Ли, Драма, приключения, 2012) [HDRip-AVC, Профес ...
  • Экипаж / Flight (Роберт Земекис, Драма, 2012) [BDRip-AVC, Профессиональный ...
  • Вероника решает умереть / Veronika Decides to Die (Эмили Янг, Драма 2009) [ ...
  • Предложение / The Proposal (Энн Флетчер, драма, мелодрама, комедия, 2009) [ ...
  • Вероника решает умереть / Veronika Decides to Die (Эмили Янг / Emily Young, ...
  • Впритык / Due Date (Тодд Филлипс, драма, комедия, 2010) [HDRip-AVC, Професс ...
  • Хранитель времени / Hugo (Мартин Скорсезе, Драма, 2011) [BDRip-AVC, Професс ...
  • Хранитель времени / Hugo (Мартин Скорсезе, Драма, 2011) [BDRip-AVC, Професс ...
  • Снова ты / You Again (Энди Фикмен, мелодрама, комедия, 2010) [BDRip-AVC, Пр ...
  • Неуловимый Люк / Lucky Luke (Джеймс Хат, Вестерн, 2009) [HDRip-AVC, Професс ...
  • Вероника решает умереть / Veronika Decides to Die (Эмили Янг / Emily Young, ...
  • Mylene Farmer / Du Temps [2011, Pop, HDTVRip]
  • [3D] Шаг вперед / Step Up (Джон М. Чу, драма, мелодрама, музыка, 2010) [B ...
  • Вероника решает умереть / Veronika Decides to Die (Эмили Янг, драма, 2009) ...
  • Вероника решает умереть / Veronika Decides to Die (Эмили Янг, драма, 2009) ...
  • Информация
    Посетители, находящиеся в группе Гости, не могут оставлять комментарии к данной публикации.