вход на сайт

Имя пользователя :
Пароль :

Восстановление пароля Регистрация
Я его слепила (Михаил Жерневский, Мелодрама, 2012) [HDTV 1080i, Не требуется]
Рейтинг:
(голосов: 1)



[img]{THEME}/images/logopost.png[/img]



Я его слепила

Год выпуска: 2012
Страна: Россия
Производство: "Медиапрофсоюз"
Жанр: Мелодрама

Режиссёр: Михаил Жерневский
В ролях: Олеся Фаттахова, Сергей Мухин, Татьяна Чердынцева, Ольга Кл*censored*ович, Дмитрий Мухин, Евгений Никитин, Денис Паршин, Виктор Синайский

Перевод: Не требуется
Субтитры: Отсутствуют

Описание: Катя работает консультантом в свадебном салоне. Перед ней проходит череда женихов и невест, - она помогает им сделать самым счастливым главный день в жизни, но, как обычно это бывает, на свою личную жизнь времени ей не хватает. Однажды к Кате обращается подруга Лера – взбалмошная дочка владельца крупной компании. Лера влюблена в своего коллегу - обычного программиста Гришу – обаятельного недотёпу. Но препятствием к её счастью является отец – деспот, который, не предавая значения чувствам дочки, сам решил подыскать ей жениха. Лера просит Катю научить Гришу «держать марку» и превратить его в первоклассного жениха, на которого бы папаша обратил внимание. Но Лера недоговаривает: на самом деле Гриша ничего не подозревает о её планах на предстоящую помолвку. Лера уверяет его, что «перемена внешности нужна для того, чтобы, он смог представить свой гениальный бизнес-план на предстоящем совете директоров». Катя соглашается помочь подруге, но на первой же встрече понимает, что Гриша «очень запущенный случай»... Она не подозревает, что встреча с несуразным клиентом очень скоро поставит её перед сложным выбором: дружба с лучшей подругой или собственное личное счастье…
Качество: HDTV 1080i
Продолжительность: 01:21:28

Формат:TS
Видео кодек: AVC
Аудио кодек: AC3
Видео: 1920x1080 (16:9), 25.000 fps, ~7.845 Kbps, 0.151 bit/pixel
Аудио: 48 kHz, MPEG Audio, 2 ch, 192 kbps


"MediaInfo" ▼General
ID : 1 (0x1)
Complete name : C:Я его слепила (2012) HDTV [1080i].ts
Format : MPEG-TS
File size : 5.81 GiB
Duration : 1h 38mn
Overall bit rate mode : Variable
Overall bit rate : 8 456 Kbps

Video
ID : 2911 (0xB5F)
Menu ID : 1 (0x1)
Format : AVC
Format/Info : Advanced Video Codec
Format profile : [email protected]
Format settings, CABAC : Yes
Format settings, ReFrames : 4 frames
Codec ID : 27
Duration : 1h 38mn
Bit rate : 7 845 Kbps
Width : 1 920 pixels
Height : 1 080 pixels
Display aspect ratio : 16:9
Frame rate : 25.000 fps
Color space : YUV
Chroma subsampling : 4:2:0
Bit depth : 8 bits
Scan type : MBAFF
Bits/(Pixel*Frame) : 0.151
Stream size : 5.39 GiB (93%)

Audio
ID : 2912 (0xB60)
Menu ID : 1 (0x1)
Format : MPEG Audio
Format version : Version 1
Format profile : Layer 2
Codec ID : 3
Duration : 1h 38mn
Bit rate mode : Constant
Bit rate : 192 Kbps
Channel(s) : 2 channels
Sampling rate : 48.0 KHz
Compression mode : Lossy
Stream size : 135 MiB (2%)
Language : Russian




9819bf65cb0966d5eea1a328f23fd513b17ba4e4Я его слепила (Михаил Жерневский, Мелодрама, 2012) [HDTV 1080i, Не требуется] Я его слепила (Михаил Жерневский, Мелодрама, 2012) [HDTV 1080i, Не требуется] " />

Аплоадер: Админ, дата: 9-02-2013, 16:45, торрент скачан: 359 раз

Понравилась раздача? Посмотрите эти:
  • Beyoncе / The Sound Of Change Live [2013, Pop, HDTV 1080i]
  • Beyoncе / The Sound Of Change Live [2013, Pop, HDTV 1080i]
  • Rihanna / What Now [2013, R&B, HDTV]
  • Enrique Iglesias / Heart Attack [2013, Pop, HDTV]
  • Чемпионат России 2013-2014 / 8-й тур / ЦСКА (Москва) - Ростов (Ростов-на-До ...
  • Friendly match 2013 / Brazil - Portugal [футбол, 10.09.2013, HDTV 1080i,FR] ...
  • Чемпионат Мира 2014 / Отборочный турнир / Группа I / 10-й тур / Беларусь - ...
  • Чемпионат Англии 2012-2013 / 36-й тур / Манчестер Юнайтед - Челси / Спорт 1 ...
  • Чемпионат Испании 2012-13 / 34-й тур / Реал Мадрид - Вальядолид / НТВ+ [04. ...
  • Тележурнал "Евроголы" / Eurosport HD [Футбол, 06.05.2013, 1080i, H264, RU, ...
  • [NG] Путешествие по Атлантике: Часть 2 / Travel across the Atlantic: Part 2 ...
  • Лига Чемпионов 2012-13 / 1/4 финала / Ответный матч / Боруссия Д (Германия) ...
  • Я его слепила (Михаил Жерневский, мелодрама, 2013) [HDTVRip, Не требуется]
  • Я его слепила (Михаил Жерневский, мелодрама, 2013) [SATRip, Не требуется]
  • Чемпионат Испании 2011-12 / 35-й тур / Барселона - Реал / Футбол HD [Футбол ...
  • Чемпионат Мира по хоккею 2012 / 1/2 финала / Россия vs Финляндия [хоккей, 1 ...
  • Mick Jagger / SNL [2012, Rock, HDTV 1080i]
  • Rihanna / Diamonds (Victorias Secret) [2012, RnB, HDTV 1080i]
  • David Guetta feat. Sia / She Wolf [2012, Pop, Dance, HDTV 1080i]
  • Голос // Выпуск 13 / Суперфинал (ТВ-шоу, 29.12.2012) [HDTV |1080i|, Не треб ...
  • Melody Gardot / Mira [2012, Jazz, Acoustic, HDTV 1080i]
  • Чемпионат Европы. Группа D. Швеция - Англия / EURO-2012. Group D. Sweden - ...
  • Чемпионат Европы. 1/2 финала. Германия - Италия / EURO-2012. Semi-final. Ge ...
  • Бой за титул чемпиона мира по боксу в супертяжелом весе по версии IBF / Вла ...
  • Лига Чемпионов 2012-13 / 6-й тур / Группа D / Реал (Испания) - Аякс (Нидерл ...
  • Информация
    Посетители, находящиеся в группе Гости, не могут оставлять комментарии к данной публикации.