вход на сайт

Имя пользователя :
Пароль :

Восстановление пароля Регистрация
Букет (Андрей Канивченко, мелодрама, 2013) [HDTVRip, Не требуется]
Рейтинг:
(голосов: 1)



[img]{THEME}/images/logopost.png[/img]



• Букет •

♥ Год выпуска: 2013
♥ Страна: Россия
♥ Производство: Триикс Медиа
♥ Жанр: Мелодрама

♥ Режиссёр: Андрей Канивченко
♥ В ролях: Ольга Котельникова, Елена Дубровская, Анатолий Котенёв, Инна Коляда, Анатолий Руденко, Любовь Руденко.

♥ Перевод: Не требуется
♥ Субтитры: Отсутствуют

♥ Описание: Каждая девушка хочет услышать предложение руки и сердца от своего любимого, но только не Таня. Ведь только что закончилась школа, зачем так рано становиться взрослыми! А вдруг за поворотом ее ждет огромное счастье? Во всяком случае, мама считает именно так. И когда на горизонте появляется перспективный жених с дипломатическим будущим, Таня делает выбор в его пользу.
Проходят восемнадцать лет Таниной жизни. Дочь Таня воспитывает одна, с работы приходится уйти, и будущее зыбко и туманно. Неизменным в ее жизни остается лишь одно: от Сергея, ее первой любви, на день рождения приходит букет ромашек. Семнадцать лет. Семнадцать букетов. Как важно знать, что кто-то в этом мире так преданно любит тебя!
Новый день рождения не приносит с собой очередного букета. И только теперь Таня понимает, как много значил для нее этот букет на день рожденья. Сможет ли Таня вернуть любовь в свою жизнь?...



♥ Качество: HDTVRip
♥ Продолжительность: 01:30:00

♥ Формат: AVI
♥ Видео кодек: XviD
♥ Аудио кодек: AC3
♥ Видео: 720x400 (1.80:1), 25 fps, XviD build 50 ~1932 kbps avg, 0.27 bit/pixel
♥ Аудио: 48 kHz, AC3 Dolby Digital, 2/0 (L,R) ch, ~192.00 kbps avg
MediaInfo: ▼TextGeneral
Complete name : V:ftp4VideosBuket.2013.XviD.HDTVRip.Files-x.avi
Format : AVI
Format/Info : Audio Video Interleave
File size : 1.37 GiB
Duration : 1h 31mn
Overall bit rate : 2 135 Kbps
Writing application : VirtualDubMod 1.5.10.3 | www.virtualdub-fr.org || (build 2550/release)
Writing library : VirtualDubMod build 2550/release
Video
ID : 0
Format : MPEG-4 Visual
Format profile : Advanced [email protected]
Format settings, BVOP : 1
Format settings, QPel : No
Format settings, GMC : No warppoints
Format settings, Matrix : Default (H.263)
Codec ID : XVID
Codec ID/Hint : XviD
Duration : 1h 31mn
Bit rate : 1 933 Kbps
Width : 720 pixels
Height : 400 pixels
Display aspect ratio : 16:9
Frame rate : 25.000 fps
Color space : YUV
Chroma subsampling : 4:2:0
Bit depth : 8 bits
Scan type : Progressive
Compression mode : Lossy
Bits/(Pixel*Frame) : 0.268
Stream size : 1.24 GiB (91%)
Writing library : XviD 1.2.1 (UTC 2008-12-04)
Audio
ID : 1
Format : AC-3
Format/Info : Audio Coding 3
Mode extension : CM (complete main)
Format settings, Endianness : Big
Codec ID : 2000
Duration : 1h 31mn
Bit rate mode : Constant
Bit rate : 192 Kbps
Channel(s) : 2 channels
Channel positions : Front: L R
Sampling rate : 48.0 KHz
Bit depth : 16 bits
Compression mode : Lossy
Stream size : 126 MiB (9%)
Alignment : Split accross interleaves
Interleave, duration : 40 ms (1.00 video frame)
Interleave, preload duration : 500 ms

Релиз Группы «Virtus»

Стол заказов | Вступление в РГ | Благодарности, критика и другое


93211c18c0a0479a9cc6f0b0c2c13dcf7bb1be9eБукет (Андрей Канивченко, мелодрама, 2013) [HDTVRip, Не требуется] Букет (Андрей Канивченко, мелодрама, 2013) [HDTVRip, Не требуется] " />

Аплоадер: Админ, дата: 5-04-2013, 20:42, торрент скачан: 359 раз

Понравилась раздача? Посмотрите эти:
  • Товарищеский матч 2013 / Англия - Германия / Спорт 1 [футбол, 19.11.2013, H ...
  • Вирус / Flu (Ким Сон Су, Драма, 2013) [HDTVRip, Любительский (двухголосый з ...
  • Марафон (Карен Оганесян, комедия, 2013) [WEB-DLRip, Не требуется]
  • Икона сезона (Сергей Швыдкой,Драма, комедия, 2013) [DVDRip, Не требуется]
  • Мужество / Wymyk (Грег Зглински, драма, 2011) [DVDRip, Любительский (одного ...
  • Слабые проблески / Rushlights (Энтони Стац, Триллер, Мелодрама, Криминал, 2 ...
  • Решала (Роман Асхаев, Драма,Криминал, 2012) [WEB-DLRip, Не требуется]
  • Букет (Андрей Канивченко, мелодрама, 2013) [HDTVRip 720p, Оригинал (русский ...
  • Букет (Андрей Канивченко, мелодрама, 2013) [HDTVRip, Не требуется]
  • Букет (Андрей Канивченко, мелодрама, 2013) [SATRip, Не требуется]
  • МЫ. Верим в любовь / W.E. (Мадонна, Драма, мелодрама, история, 2011) [BDRip ...
  • Любовь на кончиках пальцев / Populaire (Режис Ройнсар, Мелодрама, комедия, ...
  • Букет (Андрей Канивченко, мелодрама, 2013) [SATRip, Не требуется]
  • Безопасность не гарантируется / Safety Not Guaranteed (Колин Треворроу, фан ...
  • Любовь на кончиках пальцев / Populaire (Режис Ройнсар, Мелодрама, комедия, ...
  • Весенние надежды / Hope Springs (Дэвид Фрэнкел, Драма, мелодрама, комедия, ...
  • Псы войны / The Dogs of War (Джон Ирвин, боевик, драма, приключения, военны ...
  • Без всего / Sin ella (Джордже Колон, Мелодрама, 2010) [HDTVRip , Профессион ...
  • Захват / Carjacked (Джон Бонито, триллер, 2011)[BDRip, Профессиональный (мн ...
  • Три богатыря на дальних берегах (Константин Феоктистов, мультфильм, комедия ...
  • Информация
    Посетители, находящиеся в группе Гости, не могут оставлять комментарии к данной публикации.