вход на сайт

Имя пользователя :
Пароль :

Восстановление пароля Регистрация
Однажды на матрасе / Once Upon a Mattress (Кэтлин Маршалл, мюзикл, мелодрама, комедия, 2005) [DVDRip, Профессиональный (двухголосый, закадровый) НТВ+]
Рейтинг:
(голосов: 1)



[img]{THEME}/images/logopost.png[/img]



Однажды на матрасе / Once Upon a Mattress

Год выпуска: 2005
Страна: США
Производство: ABC Video, Mattress Productions Ltd., Touchstone Television
Жанр: мюзикл, мелодрама, комедия

Режиссёр: Кэтлин Маршалл
В ролях: Кэрол Бёрнетт, Британи Грэй
, Трейси Уллмен, Дэнис О’аре, Зои Дешанель, Мэттью Моррисон
, Майкл Ботмэн, Том Смотерз, Эдвард Хибберт, Мишель Харрисон

Перевод: Профессиональный (двухголосый, закадровый) НТВ+
Субтитры: Отсутствуют

Описание:
Музыкальный фильм по мотивам сказки Г.-Х. Андерсена «Принцесса на горошине».




Дополнительно:
Рейтинг MPAA: ▼
Рейтинг PG - Рекомендуется присутствие родителей



MediaInfo ▼Text
Общее
Полное имя :D:. РАЗДАЧАОднажды на матрасеОднажды на матрасе.avi
Формат :AVI
Размер :705 MiB
Продолжительность :01:30:10.947
Общий поток :1 093 Kbps
Программа кодирования :VirtualDubMod 1.5.10.2 (build 2540/release)
Библиотека кодирования :VirtualDubMod build 2540/release

Видео
Идентификатор :0
Формат :MPEG-4 Visual
Профиль формата :Advanced [email protected]
Параметр BVOP формата :1
Параметр Qpel формата :No
Параметр GMC формата :0
Параметр Matrix формата :Default (MPEG)
Идентификатор кодека :XVID
Продолжительность :1h 30mn 10s 947ms
Битрейт :955 Kbps
Ширина :608 pixels
Высота :336 pixels
Соотношение сторон :1.810
Частота кадров :23.976 fps
Глубина цвета :8 bits
Подвыборка цветности :4:2:0
Цветовое пространство :YUV
Тип развертки :Progressive
Бит/(Пиксели*Кадры) :0.195
Размер потока :616 MiB (87%)
Библиотека кодирования :XviD0047

Аудио #1
Идентификатор :1
Формат :MPEG Audio
Идентификатор кодека :55
Продолжительность :01:30:10.944
Вид битрейта :Constant
Битрейт :128 Kbps
Канал(ы) :2 channels
Частота :48.0 KHz
Метод сжатия :Lossy
Размер потока :82.6 MiB (12%)Тех. данные:
Качество:DVDRip
Продолжительность:01:30:17 час

Формат: AVI
Видео кодек: XviD
Аудио кодек: &nb
e9890b0ca858a4b932a6077c6732ba7375b21a2cОднажды на матрасе / Once Upon a Mattress (Кэтлин Маршалл, мюзикл, мелодрама, комедия, 2005) [DVDRip, Профессиональный (двухголосый, закадровый) НТВ+] Однажды на матрасе / Once Upon a Mattress (Кэтлин Маршалл, мюзикл, мелодрама, комедия, 2005) [DVDRip, Профессиональный (двухголосый, закадровый) НТВ+] " />

Аплоадер: Админ, дата: 19-04-2013, 00:28, торрент скачан: 359 раз

Понравилась раздача? Посмотрите эти:
  • Вступайте в ряды армии / Up in Arms (Эллиотт Наджент, мюзикл, комедия, 1944 ...
  • Утиный суп / Duck Soup (Лео МакКери, мюзикл, комедия, 1933) [DVDRip, Профес ...
  • Гарри-карманник / Harry in Your Pocket (Брюс Геллер, драма, комедия, кримин ...
  • Поездка в Америку / Coming to America (Джон Лэндис, драма, мелодрама, комед ...
  • Ловушка для родителей / The Parent Trap (Дэвид Свифт, мелодрама, комедия, с ...
  • Моя любовь (Владимир Корш-Саблин, мюзикл, мелодрама, комедия, 1940) [DVDRip ...
  • Князь Игорь (Роман Тихомиров, мюзикл, приключения, 1969) [DVDRip, Не требуе ...
  • Молчание - золото / Le silence est dor (Рене Клер, мелодрама, комедия, 1947 ...
  • Синяя Ласточка / Cheong yeon (Джонг-Чан Юн, мелодрама, 2005) [DVDRip, Любит ...
  • Сватовство гусара (Светлана Дружинина, мюзикл, мелодрама, комедия, 1979) [D ...
  • Шельменко-денщик (Андрей Тутышкин, мюзикл, комедия, 1971) [DVDRip, Не требу ...
  • Смешная девчонка / Funny Girl (Уильям Уайлер , мюзикл, драма, мелодрама, ко ...
  • Тристана / Tristana (Луис Бунюэль, Драма, 1970) [DVDRip, Профессиональный ( ...
  • Консьерж / For Love or Money (Барри Зонненфельд, Мелодрама, комедия, 1993) ...
  • Великий Уолдо Пеппер / The Great Waldo Pepper (Джордж Рой Хилл, драма, прик ...
  • Под покровом небес / The Sheltering Sky (Бернардо Бертолуччи, драма, мелодр ...
  • Принцесса Клевская / La princesse de Cleves (Жан Деланнуа, драма, мелодрама ...
  • Сделано в Раю / Made in Heaven (Алан Рудольф, фэнтези, мелодрама, комедия, ...
  • В то же время, в следующем году / Same Time, Next Year (Роберт Маллиган, др ...
  • Повышение / The Promotion (Стив Конрад, Комедия, 2008) [DVDRip, Профессиона ...
  • Хеллоу, Долли! / Hello, Dolly! (Джин Келли, мюзикл, мелодрама, комедия, сем ...
  • Убей! / Kiru (Кихачи Окамото, боевик, драма, комедия, 1968) [DVDRip, Профес ...
  • Улыбки летней ночи / Sommarnattens leende (Ингмар Бергман, мелодрама, комед ...
  • Что навеял ветер / Something in the Wind (Ирвинг Пичел, мюзикл, комедия, 19 ...
  • Авария / Breakdown (Джонатан Мостоу, боевик, триллер, драма, криминал, дете ...
  • Информация
    Посетители, находящиеся в группе Гости, не могут оставлять комментарии к данной публикации.