вход на сайт

Имя пользователя :
Пароль :

Восстановление пароля Регистрация
Снова ты / You Again (Энди Фикмен, Мелодрама, комедия, 2010) [BDRip-AVC, Профессиональный (полное дублирование), Оригинал (английский), Sub]
Рейтинг:
(голосов: 1)



[img]{THEME}/images/logopost.png[/img]



Снова ты / You Again

Cлоган: «То, что тебя не убивает... выходит замуж за твоего брата»

Год выпуска: 2010
Страна: США
Производство: Touchstone Pictures
Жанр: Мелодрама, комедия

Режиссёр: Энди Фикмен
В ролях: Кристен Белл, Джейми Ли Кёртис, Сигурни Уивер, Одетт Юстман, Виктор Гарбер, Бетти Уайт, Джеймс Волк, Кристин Ченоуэт, Шон Уинг, Кайл Борнхеймер

Перевод: Профессиональный (полное дублирование), Оригинал (английский)
Субтитры: русские, английские

Описание: Успешная PR-менеджер Марни приезжает на свадьбу брата. Выясняется, что он собирается жениться на девушке, которая ужасно изводила Марни во время учебы в школе. Ситуация становится еще хуже, когда выясняется, что сногсшибательная тётя невесты была школьным кошмаром мамы Марни. Старые обиды снова оживают в уморительной комедии о том, к чему может привести встреча бывших одноклассниц.



Качество: BDRip-AVC
Продолжительность: 01:45:27 час.

Формат: MKV
Видео кодек: AVC
Аудио кодек: AС3
Видео: 1152x480 (2.40:1), 23.976 fps, Advanced Video Codec ~3000 kbps avg, 0.226 bit/pixel
Аудио #1: 48 kHz, AC3 Dolby Digital, 6 Ch (Front: L C R, Side: L R, LFE), ~448.00 kbps avg - (Dub)
Аудио #2: 48 kHz, AC3 Dolby Digital, 6 Ch (Front: L C R, Side: L R, LFE), ~448.00 kbps avg - (ENG)

Дата премьеры (мир): 23 сентября 2010
Дата премьеры (РФ): 23 сентября 2010, «WDSSPR»

MediaInfo ▼General
Complete name : You_Again_2010_BDRip-AVC.mkv
Format : Matroska
File size : 2.87 GiB
Duration : 1h 45mn
Overall bit rate : 3 898 Kbps
Movie name : You Again :: 2010 :: BDRip by duk
Encoded date : UTC 2011-01-11 19:43:14
Writing application : mkvmerge v4.4.0 (Die Wiederkehr) сборка от Oct 31 2010 21:52:48
Writing library : libebml v1.0.0 + libmatroska v1.0.0
Cover : Yes
Video
ID : 1
Format : AVC
Format/Info : Advanced Video Codec
Format profile : [email protected]
Format settings, CABAC : Yes
Format settings, ReFrames : 12 frames
Codec ID : V_MPEG4/ISO/AVC
Duration : 1h 45mn
Bit rate : 3 000 Kbps
Width : 1 152 pixels
Height : 480 pixels
Display aspect ratio : 2.40:1
Frame rate : 23.976 fps
Color space : YUV
Chroma subsampling : 4:2:0
Bit depth : 8 bits
Scan type : Progressive
Bits/(Pixel*Frame) : 0.226
Stream size : 2.15 GiB (75%)
Title : [email protected] MPEG-4 part 10 (AVC)
Writing library : x264 core 98 r1649 c54c47d
Encoding settings : cabac=1 / ref=12 / deblock=1:-3:-2 / analyse=0x3:0x133 / me=umh / subme=10 / psy=1 / psy_rd=1.20:0.16 / mixed_ref=1 / me_range=32 / chroma_me=1 / trellis=2 / 8x8dct=1 / cqm=0 / deadzone=21,11 / fast_pskip=0 / chroma_qp_offset=-5 / threads=6 / sliced_threads=0 / nr=0 / decimate=1 / interlaced=0 / constrained_intra=0 / bframes=9 / b_pyramid=2 / b_adapt=2 / b_bias=0 / direct=3 / weightb=1 / weightp=2 / keyint=250 / keyint_min=25 / scenecut=40 / intra_refresh=0 / rc_lookahead=80 / rc=2pass / mbtree=1 / bitrate=3000 / ratetol=1.0 / qcomp=0.60 / qpmin=10 / qpmax=51 / qpstep=4 / cplxblur=20.0 / qblur=0.5 / ip_ratio=1.40 / aq=2:0.60
Language : English
Color primaries : BT.709-5, BT.1361, IEC 61966-2-4, SMPTE RP177
Transfer characteristics : BT.709-5, BT.1361
Matrix coefficients : BT.709-5, BT.1361, IEC 61966-2-4 709, SMPTE RP177
Audio #1
ID : 2
Format : AC-3
Format/Info : Audio Coding 3
Mode extension : CM (complete main)
Codec ID : A_AC3
Duration : 1h 45mn
Bit rate mode : Constant
Bit rate : 448 Kbps
Channel(s) : 6 channels
Channel positions : Front: L C R, Side: L R, LFE
Sampling rate : 48.0 KHz
Bit depth : 16 bits
Compression mode : Lossy
Stream size : 338 MiB (11%)
Title : AC3, 48 KHz, 448 kbps, CBR, 6 Ch (Front: L C R, Side: L R, LFE)
Language : Russian
Audio #2
ID : 3
Format : AC-3
Format/Info : Audio Coding 3
Mode extension : CM (complete main)
Codec ID : A_AC3
Duration : 1h 45mn
Bit rate mode : Constant
Bit rate : 448 Kbps
Channel(s) : 6 channels
Channel positions : Front: L C R, Side: L R, LFE
Sampling rate : 48.0 KHz
Bit depth
4fe4ab18855f48c1a76a90697661cd016afa42b3Снова ты / You Again (Энди Фикмен, Мелодрама, комедия, 2010) [BDRip-AVC, Профессиональный (полное дублирование), Оригинал (английский), Sub] Снова ты / You Again (Энди Фикмен, Мелодрама, комедия, 2010) [BDRip-AVC, Профессиональный (полное дублирование), Оригинал (английский), Sub] " />

Аплоадер: Админ, дата: 29-07-2013, 14:47, торрент скачан: 359 раз

Понравилась раздача? Посмотрите эти:
  • Пастырь / Priest (Скотт Чарльз Стюарт, ужасы, фантастика, боевик, триллер, ...
  • Как выйти замуж за 3 дня / Leap Year (Ананд Такер, Мелодрама, комедия, 2010 ...
  • Соучастник / Collateral (Майкл Манн, Триллер, драма, криминал, 2004) [BDRip ...
  • Жизнь Пи / Life Of Pi (Энг Ли, Драма, приключения, 2012) [BDRip 720p, Профе ...
  • Жизнь Пи / Life Of Pi (Энг Ли, Драма, приключения, 2012) [BDRip 1080p, Проф ...
  • Город воров / The Town [Театральная версия / Theatrical Cut] (Бен Аффлек / ...
  • Аноним / Anonymous (Роланд Эммерих, триллер, драма, 2011) [BDRip-AVC, Профе ...
  • Голодный кролик атакует / Seeking Justice (Роджер Дональдсон / Roger Donald ...
  • Снова ты / You Again (Энди Фикмен, мелодрама, комедия, 2010) [BDRip-AVC, Пр ...
  • «Старый» Новый год / New Years Eve (Гэрри Маршалл, Мелодрама, 2011) [BDRip- ...
  • Вампирский засос / Vampires Suck (Джейсон Фридберг, Аарон Зельцер, комедия, ...
  • На грани / Man on a Ledge (Асгер Лет, триллер, криминал, 2012) [BDRip-AVC, ...
  • Человек-волк [Театральная версия] / The Wolfman [Theatrical cut] (Джо Джонс ...
  • Робин Гуд [Режиссёрская версия] / Robin Hood [Directors Cut] (Ридли Скотт / ...
  • Сутенер / Le mac (Паскаль Бюрдо / Pascal Bourdiaux, комедия, криминал, 2010 ...
  • Коллекционер 2 / The Collection (Маркус Данстэн, ужасы, боевик, триллер , 2 ...
  • Снова ты / You Again (Энди Фикмен,комедия, мелодрама,2010) [DVD5, дубляж.]
  • Снова ты / You Again (Энди Фикмен, мелодрама, комедия, 2010) [BDRip, Дублир ...
  • Снова ты / You Again (Энди Фикмен, мелодрама, комедия, 2010) [HDRip, Дубляж ...
  • Снова ты / You Again (Энди Фикмен, комедия, мелодрама, 2010) [BDRip, Дублир ...
  • Информация
    Посетители, находящиеся в группе Гости, не могут оставлять комментарии к данной публикации.