вход на сайт

Имя пользователя :
Пароль :

Восстановление пароля Регистрация
Как выйти замуж за 3 дня / Leap Year (Ананд Такер, Мелодрама, комедия, 2010) [BDRip-AVC, Профессиональный (полное дублирование), Украинский, Оригинал (английский), Sub]
Рейтинг:
(голосов: 1)



[img]{THEME}/images/logopost.png[/img]



Как выйти замуж за 3 дня / Leap Year

Год выпуска: 2010
Страна: США, Ирландия
Производство: BenderSpink, Birnbaum/Barber, Octagon Films
Жанр: Мелодрама, комедия

Режиссёр: Ананд Такер
В ролях: Эми Адамс, Мэттью Гуд, Адам Скотт, Джон Литгоу, Ноэль О`Донован, Тони Рор, Пэт Лаффан, Алан Девлин, Йен МакЭлхинни, Доминик МакЭллигот

Перевод: Профессиональный (полное дублирование), Профессиональный (полное дублирование) - Украинский, Оригинал (английский)
Субтитры: русские, украинские, английские

Описание: В англоязычных странах есть традиция — 29 февраля женщина может сделать предложение мужчине, и он не имеет права отказаться. И вот чопорная дама едет в Дублин, чтобы именно в этот день попробовать сделать предложение своему бойфренду.

Но погода меняет её планы, и чтобы осуществить задуманное, ей приходится прибегнуть к помощи ворчливого ирландца — хозяина гостиницы. Вместе с ним героиня вынуждена путешествовать через всю страну, чтобы успеть вовремя сделать предложение.



Качество: BDRip-AVC
Продолжительность: 01:40:16 час.

Формат: MKV
Видео кодек: AVC
Аудио кодек: AC3
Видео: 1224x510 (2.40:1), 23.976 fps, Advanced Video Codec ~2 998 kbps avg, 0.200 bit/pixel
Аудио: 48 kHz, AC3 Dolby Digital, 6 ch, ~384.00 kbps avg - (Rus)
Аудио: 48 kHz, AC3 Dolby Digital, 6 ch, ~384.00 kbps avg - (Ukr)
Аудио: 48 kHz, AC3 Dolby Digital, 6 ch, ~384.00 kbps avg - (Eng)

MediaInfo ▼General
Complete name :Leap.Year.2010.BDRip.x264.AC3.Rus.Ukr.Eng.SUB.Rus.Ukr.Eng.NAV.Cover.mkv
Format : Matroska
File size : 2.91 GiB
Duration : 1h 40mn
Overall bit rate : 4 151 Kbps
Movie name : Leap Year :: 2010 :: BDRip by duk
Encoded date : UTC 2011-01-16 18:52:52
Writing application : mkvmerge v4.4.0 (Die Wiederkehr) сборка от Oct 31 2010 21:52:48
Writing library : libebml v1.0.0 + libmatroska v1.0.0
Cover : Yes
Video
ID : 1
Format : AVC
Format/Info : Advanced Video Codec
Format profile : [email protected]
Format settings, CABAC : Yes
Format settings, ReFrames : 12 frames
Codec ID : V_MPEG4/ISO/AVC
Duration : 1h 40mn
Bit rate : 2 998 Kbps
Width : 1 224 pixels
Height : 510 pixels
Display aspect ratio : 2.40:1
Frame rate : 23.976 fps
Color space : YUV
Chroma subsampling : 4:2:0
Bit depth : 8 bits
Scan type : Progressive
Bits/(Pixel*Frame) : 0.200
Stream size : 2.04 GiB (70%)
Title : [email protected] MPEG-4 part 10 (AVC)
Writing library : x264 core 98 r1649 c54c47d
Encoding settings : cabac=1 / ref=12 / deblock=1:-3:-3 / analyse=0x3:0x133 / me=esa / subme=10 / psy=1 / psy_rd=1.20:0.35 / mixed_ref=1 / me_range=32 / chroma_me=1 / trellis=2 / 8x8dct=1 / cqm=0 / deadzone=21,11 / fast_pskip=0 / chroma_qp_offset=-4 / threads=6 / sliced_threads=0 / nr=0 / decimate=1 / interlaced=0 / constrained_intra=0 / bframes=12 / b_pyramid=2 / b_adapt=2 / b_bias=0 / direct=3 / weightb=1 / weightp=2 / keyint=250 / keyint_min=25 / scenecut=40 / intra_refresh=0 / rc_lookahead=80 / rc=2pass / mbtree=1 / bitrate=2998 / ratetol=1.0 / qcomp=0.60 / qpmin=10 / qpmax=51 / qpstep=4 / cplxblur=20.0 / qblur=0.5 / ip_ratio=1.40 / aq=2:1.00
Language : English
Audio #1
ID : 2
Format : AC-3
Format/Info : Audio Coding 3
Mode extension : CM (complete main)
Codec ID : A_AC3
Duration : 1h 40mn
Bit rate mode : Constant
Bit rate : 384 Kbps
Channel(s) : 6 channels
Channel positions : Front: L C R, Side: L R, LFE
Sampling rate : 48.0 KHz
Bit depth : 16 bits
Compression mode : Lossy
Stream size : 275 MiB (9%)
Title : AC3, 48 KHz, 384 kbps, CBR, 6 Ch (Front: L C R, Side: L R, LFE)
Language : Russian
Audio #2
ID : 3
Format : AC-3
Format/Info : Audio Coding 3
Mode extension : CM (complete main)
Codec ID : A_AC3
Duration : 1h 40mn
Bit rate mode : Constant
Bit rate : 384 Kbps
Channel(s) : 6 channels
Channel positions : Front: L C R, Side: L R, LFE
Sampling rate : 48.0 KHz
Bit depth : 16 bits
Compression mode : Lossy
Stream size : 275 MiB (9%)
Title : AC3, 48 KHz, 384 kbps, CBR, 6 Ch
2cf45e82a051012b7bd6a326e7767a0311cd8fb2Как выйти замуж за 3 дня / Leap Year (Ананд Такер, Мелодрама, комедия, 2010) [BDRip-AVC, Профессиональный (полное дублирование), Украинский, Оригинал (английский), Sub] Как выйти замуж за 3 дня / Leap Year (Ананд Такер, Мелодрама, комедия, 2010) [BDRip-AVC, Профессиональный (полное дублирование), Украинский, Оригинал (английский), Sub] " />

Аплоадер: Админ, дата: 28-07-2013, 23:30, торрент скачан: 359 раз

Понравилась раздача? Посмотрите эти:
  • Пастырь / Priest (Скотт Чарльз Стюарт, ужасы, фантастика, боевик, триллер, ...
  • Снова ты / You Again (Энди Фикмен, Мелодрама, комедия, 2010) [BDRip-AVC, Пр ...
  • Даю год / I Give It a Year (Дэн Мазер, Мелодрама, Комедия, 2013) [BDRip-AVC ...
  • UFC - Best Of 2012 Year In Review[MMA,2013, BDRip 540p]
  • Жизнь Пи / Life Of Pi (Энг Ли, Драма, приключения, 2012) [BDRip 720p, Профе ...
  • Жизнь Пи / Life Of Pi (Энг Ли, Драма, приключения, 2012) [BDRip 1080p, Проф ...
  • Високосный год / Leap Year (Ананд Такер, комедия,мелодрама, 2010) [HDRip, П ...
  • Город воров / The Town [Театральная версия / Theatrical Cut] (Бен Аффлек / ...
  • Хранитель времени / Hugo (Мартин Скорсезе, Драма, 2011) [BDRip-AVC, Професс ...
  • «Старый» Новый год / New Years Eve (Гэрри Маршалл, Мелодрама, 2011) [BDRip- ...
  • Как выйти замуж за 3 дня / Високосный год / Leap Year (Ананд Такер, мелодра ...
  • Как выйти замуж за 3 дня / Leap Year (Ананд Такер / Anand Tucker, комедия, ...
  • Ларри Краун / Larry Crowne (Том Хэнкс, драма, мелодрама, комедия, 2011) [BD ...
  • Другой мир: Пробуждение / Underworld: Awakening (Монс Морлинд, Бьёрн Стейн, ...
  • Значит, война / This Means War (МакДжи, боевик, мелодрама, комедия, 2012) [ ...
  • [EN] Високосный год/ Leap year(Ананд Такер, комедия, мелодрама, 2010) [DVDr ...
  • Как выйти замуж за 3 дня (Високосный год) / Leap Year (Ананд Такер, комедия ...
  • Как выйти замуж за 3 дня / Leap Year (Ананд Такер, Любовный роман Комедия, ...
  • Как выйти замуж за 3 дня / Leap Year (Ананд Такер, комедия, мелодрама, 2010 ...
  • Как выйти замуж за 3 дня / Leap Year (Ананд Такер / Anand Tucker, мелодрама ...
  • Информация
    Посетители, находящиеся в группе Гости, не могут оставлять комментарии к данной публикации.