вход на сайт

Имя пользователя :
Пароль :

Восстановление пароля Регистрация
Счастливчик Гилмор / Happy Gilmore (Деннис Дуган, мелодрама, комедия, спорт, 1996) [HDRip-AVC, Профессиональный (многоголосый, закадровый)]
Рейтинг:
(голосов: 1)



[img]{THEME}/images/logopost.png[/img]



Счастливчик Гилмор / Happy Gilmore

Год выпуска: 1996
Страна: США
Производство: Brillstein-Grey Entertainment, Robert Simonds Productions, Universal Pictures
Жанр: мелодрама, комедия, спорт

Режиссёр: Деннис Дуган
В ролях: Адам Сэндлер, Кристофер МакДоналд, Джули Бауэн, Фрэнсес Бэй, Карл Уезерс, Элан Коверт

Перевод: Профессиональный (многоголосый, закадровый)
Субтитры: Отсутствуют

Описание: Гилмор с детства обожал хоккей, но, кроме пушечного удара, способностей у него к этой игре «настоящих мужчин» не было. Случай дал ему в руки клюшку для гольфа, и удар его был самым мощным за всю историю этого лужаечного вида спорта, который он так презирал. Но на одном презрении далеко не уедешь, а вот за победу в гольф платят большие деньги. И тут за дело берется профессиональный тренер по гольфу, которому придется весьма нелегко с дегенеративным «счастливчиком» Гилмором…»



Автор рипа: dexter_lex



Качество: HDRip-AVC
Продолжительность: 01:31:55

Формат: MKV
Видео кодек: x.264
Аудио кодек: AC3
Видео: 880x480 (16:9), 23.976 fps, H264, 2 074 Kbps, 0.205 bit/pixel
Аудио: 48 kHz, AC3 Dolby Digital, 2/0 (L,R) ch, ~192 kbps

Media Info ▼D:Мои рипыHappy.Gilmore.1996.HDRip-AVC.dexter_lex.mkv
General
Unique ID : 232607405589053692799476487488257254632 (0xAEFE8E888BA3FC9DB6A3A88F2C19E4E8)
Complete name : D:Мои рипыHappy.Gilmore.1996.HDRip-AVC.dexter_lex.mkv
Format : Matroska
Format version : Version 2
File size : 1.46 GiB
Duration : 1h 31mn
Overall bit rate : 2 267 Kbps
Encoded date : UTC 2013-10-23 01:29:33
Writing application : mkvmerge v6.1.0 (Old Devil) built on Mar 4 2013 09:10:42
Writing library : libebml v1.3.0 + libmatroska v1.4.0
Video #1
ID : 1
Format : AVC
Format/Info : Advanced Video Codec
Format profile : [email protected]
Format settings, CABAC : Yes
Format settings, ReFrames : 11 frames
Codec ID : V_MPEG4/ISO/AVC
Duration : 1h 31mn
Bit rate : 2 074 Kbps
Width : 880 pixels
Height : 480 pixels
Display aspect ratio : 16:9
Frame rate : 23.976 fps
Color space : YUV
Chroma subsampling : 4:2:0
Bit depth : 8 bits
Scan type : Progressive
Bits/(Pixel*Frame) : 0.205
Stream size : 1.30 GiB (90%)
Writing library : x264 core 130 r2273 b3065e6
Encoding settings : cabac=1 / ref=11 / deblock=1:-2:-2 / analyse=0x3:0x113 / me=umh / subme=10 / psy=1 / psy_rd=1.00:0.15 / mixed_ref=1 / me_range=32 / chroma_me=1 / trellis=2 / 8x8dct=1 / cqm=0 / deadzone=21,11 / fast_pskip=0 / chroma_qp_offset=-3 / threads=6 / lookahead_threads=1 / sliced_threads=0 / nr=0 / decimate=1 / interlaced=0 / bluray_compat=0 / constrained_intra=0 / bframes=9 / b_pyramid=2 / b_adapt=2 / b_bias=0 / direct=3 / weightb=1 / open_gop=0 / weightp=2 / keyint=240 / keyint_min=23 / scenecut=40 / intra_refresh=0 / rc_lookahead=60 / rc=2pass / mbtree=1 / bitrate=2074 / ratetol=1.0 / qcomp=0.60 / qpmin=0 / qpmax=69 / qpstep=4 / cplxblur=20.0 / qblur=0.5 / ip_ratio=1.40 / aq=1:1.00
Default : Yes
Forced : No
Audio #2
ID : 2
Format : AC-3
Format/Info : Audio Coding 3
Mode extension : CM (complete main)
Codec ID : A_AC3
Duration : 1h 31mn
Bit rate mode : Constant
Bit rate : 192 Kbps
Channel(s) : 2 channels
Channel positions : Front: L R
Sampling rate : 48.0 KHz
Bit depth : 16 bits
Compression mode : Lossy
Stream size : 126 MiB (8%)
Default : Yes
Forced : No


65eeea2046f9fd95bd191928886ebccfd5b4ce73Счастливчик Гилмор / Happy Gilmore (Деннис Дуган, мелодрама, комедия, спорт, 1996) [HDRip-AVC, Профессиональный (многоголосый, закадровый)] Счастливчик Гилмор / Happy Gilmore (Деннис Дуган, мелодрама, комедия, спорт, 1996) [HDRip-AVC, Профессиональный (многоголосый, закадровый)] " />

Аплоадер: Админ, дата: 25-10-2013, 12:25, торрент скачан: 359 раз

Понравилась раздача? Посмотрите эти:
  • Чемпионат Англии 2013-2014 / Английский акцент / 16-й тур / Обзор / НТВ+ [1 ...
  • Чемпионат Англии 2013-2014 / Английский акцент / Обзор 17 тура / НТВ+ [футб ...
  • FLO / NRG [2012, Pop, Dance, MasterRip]
  • Eminem / Rap God [2013, Rap, HDRip]
  • Счастливчик Гилмор / Happy Gilmore (Дэннис Дуган, комедия,мелодрама,спорт, ...
  • Властелин любви / The Look of Love (Майкл Уинтерботтом, драма, комедия, био ...
  • 42 / 42 (Брайан Хелгеленд, Драма, биография, спорт, 2013) [BDRip 720p, Проф ...
  • UFC The Ultimate 100 Knockouts - PPV [MMA,2013, HDTVRip 720p]
  • Смерть на похоронах / Death at a Funeral (Нил ЛаБут, комедия, 2010) [BDRip ...
  • VA / 2013 MTV Movie Awards [2013, Церемония награждения, HDRip]
  • Безопасность не гарантируется / Safety Not Guaranteed (Колин Треворроу, фан ...
  • Такие разные близнецы / Jack and Jill (Деннис Дуган, комедия, 2011) [BDRip- ...
  • Лига Чемпионов 2011-12 / 1/2 финала / Ответный матч / Барселона (Испания) - ...
  • Футбольный клуб / Чемпионат Европы 2012 / НТВ+ [Футбол, 08.06.2012, HDTVRip ...
  • Чемпионат Европы 2012 / Группа C / 1-й тур / Ирландия — Хорватия / Спорт 1 ...
  • Чемпионат Европы 2012 / 1/4 финала / Чехия - Португалия / Спорт 1 HD [Футбо ...
  • Чемпионат Европы 2012 / 1/2 финала / Португалия - Испания / Спорт 1 HD [Фу ...
  • Чемпионат Европы 2012 / 1/2 финала / Германия - Италия / Спорт 1 HD [Футбо ...
  • Чемпионат Европы 2012 / Финал / Испания - Италия / Спорт 1 HD [Футбол, 01. ...
  • Chelsea - Season Review 2011-12 / Челси - Обзор Сезона 2011-12 [ Футбол, 20 ...
  • Mylene Farmer / Du Temps [2011, Pop, HDTVRip]
  • Mylene Farmer / Bleu Noir [2011, Pop, HDTVRip]
  • Дело - труба / Brassed Off (Марк Херман, драма, мелодрама, комедия, 1996) [ ...
  • Счастливчик Гилмор / Happy Gilmore (Дэннис Дуган, Комедия,Мелодрама,Спорт, ...
  • Счастливчик Гилмор / Happy Gilmore (Деннис Дуган, мелодрама, комедия, спорт ...
  • Информация
    Посетители, находящиеся в группе Гости, не могут оставлять комментарии к данной публикации.