вход на сайт

Имя пользователя :
Пароль :

Восстановление пароля Регистрация
Кадиллак Рекордс / Cadillac Records (Дарнелл Мартин, драма, мелодрама, биография, история, музыка, 2008) [BDRip-AVC, Профессиональный (многоголосый, закадровый) + Субтитры]
Рейтинг:
(голосов: 1)



[img]{THEME}/images/logopost.png[/img]



Кадиллак Рекордс / Cadillac Records
Cлоган: «If you take the ride, you must pay the price»

Год выпуска: 2008
Страна: США
Выпущено: LightWave Entertainment, Parkwood Pictures, Sony Music Film
Жанр: драма, мелодрама, биография, история, музыка

Режиссёр: Дарнелл Мартин
В ролях: Эдриан Броуди, Джеффри Райт, Бейонсе Ноулз, Гэбриэл Юнион, Коламбус Шорт, Седрик «Развлекатель», Эммануэль Шрики, Имонн Уолкер, Мос Деф, Тим Беллоу

Перевод: Профессиональный (многоголосый, закадровый)
Субтитры: Русские, Английские (отключаемые)

Описание: В этой истории о сексе, жестокости, расе и рок-н-ролле Чикаго 1950-ых, «Кадиллак Рекордс» прослеживает захватывающие, но бурные жизни некоторых музыкальных легенд Америки, включая Мадди Уотерса, Леонарда Чезза, Литтл Уолтера, Хоулин Уолфа, Этты Джеймс и Чака Берри.



Качество: BDRip-AVC
Продолжительность:01:48:34

Формат: MKV
Видео кодек: AVC
Аудио кодек: AC3
Видео: 1024x426 (2,40:1), 23,976 fps, AVC ~1530 kbps, 0.146 bit/pixel
Аудио: 48 kHz, AC3 Dolby Digital, 3/2 (L,C,R,l,r) + LFE ch, 384 kbps |Russian|
MediaInfo ▼Общее
Уникальный идентификатор : 186625672132356876049654259895971190227 (0x8C66CC0A7E33779E9A3E752F0BC995D3)
Полное имя : D:Cadillac Records.2008.BDRip-AVC.mkv
Формат : Matroska
Версия формата : Version 4 / Version 2
Размер файла : 1,45 Гбайт
Продолжительность : 1 ч. 48 м.
Общий поток : 1911 Кбит/сек
Название фильма : Кадиллак Рекордс / Cadillac Records (2008) BDRip-AVC
Дата кодирования : UTC 2014-01-18 18:36:21
Программа кодирования : mkvmerge v6.6.0 (The Edge Of The In Between) built on Dec 1 2013 17:55:00
Библиотека кодирования : libebml v1.3.0 + libmatroska v1.4.1

Видео
Идентификатор : 1
Формат : AVC
Формат/Информация : Advanced Video Codec
Профиль формата : [email protected]
Параметр CABAC формата : Да
Параметр ReFrames формата : 11 кадров
Идентификатор кодека : V_MPEG4/ISO/AVC
Продолжительность : 1 ч. 48 м.
Битрейт : 1530 Кбит/сек
Ширина : 1024 пикселя
Высота : 426 пикселей
Соотношение сторон : 2,40:1
Режим частоты кадров : Постоянный
Частота кадров : 23,976 кадра/сек
Цветовое пространство : YUV
Субдискретизация насыщенности : 4:2:0
Битовая глубина : 8 бит
Тип развёртки : Прогрессивная
Бит/(Пиксели*Кадры) : 0.146
Размер потока : 1,13 Гбайт (78%)
Библиотека кодирования : x264 core 138 r2358 9e941d1
Настройки программы : cabac=1 / ref=11 / deblock=1:-1:-1 / analyse=0x3:0x2 / me=umh / subme=11 / psy=1 / psy_rd=1.04:0.26 / mixed_ref=1 / me_range=48 / chroma_me=1 / trellis=2 / 8x8dct=1 / cqm=0 / deadzone=21,11 / fast_pskip=0 / chroma_qp_offset=-4 / threads=4 / lookahead_threads=1 / sliced_threads=0 / nr=0 / decimate=1 / interlaced=0 / bluray_compat=0 / constrained_intra=0 / bframes=12 / b_pyramid=2 / b_adapt=1 / b_bias=0 / direct=3 / weightb=1 / open_gop=0 / weightp=2 / keyint=240 / keyint_min=23 / scenecut=40 / intra_refresh=0 / rc_lookahead=40 / rc=2pass / mbtree=1 / bitrate=1530 / ratetol=1.0 / qcomp=0.60 / qpmin=0 / qpmax=69 / qpstep=4 / cplxblur=20.0 / qblur=0.5 / vbv_maxrate=62500 / vbv_bufsize=78125 / nal_hrd=none / ip_ratio=1.40 / aq=1:1.00
Default : Да
Forced : Нет

Аудио
Идентификатор : 2
Формат : AC-3
Формат/Информация : Audio Coding 3
Расширение режима : CM (complete main)
Параметр Endianness формата : Big
Идентификатор кодека : A_AC3
Продолжительность : 1 ч. 48 м.
Вид битрейта : Постоянный
Битрейт : 384 Кбит/сек
Каналы : 6 каналов
Расположение каналов : Front: L C R, Side: L R, LFE
Частота : 48,0 КГц
Битовая глубина : 16 бит
Метод сжатия : С потерями
Размер потока : 298 Мбайт (20%)
Заголовок : Профессиональный (многоголосый закадровый)
Язык : Russian
Default : Да
Forced : Нет

Текст #1
Идентификатор : 3
Формат : UTF-8
Идентификатор кодека : S_TEXT/UTF8
Идентификатор кодека/Информация : UTF-8 Plain Text
Язык : Russian
Default : Да
Forced : Нет

Текст #2
Идентификатор : 4
Формат : UTF-8
Идентификатор кодека : S_TEXT/UTF8
Идентификатор кодека/Инф
5dc20eee18c578f23dcdd88fdca5d0f46eb80049Кадиллак Рекордс / Cadillac Records (Дарнелл Мартин, драма, мелодрама, биография, история, музыка, 2008) [BDRip-AVC, Профессиональный (многоголосый, закадровый) + Субтитры] Кадиллак Рекордс / Cadillac Records (Дарнелл Мартин, драма, мелодрама, биография, история, музыка, 2008) [BDRip-AVC, Профессиональный (многоголосый, закадровый) + Субтитры] " />

Аплоадер: Админ, дата: 19-01-2014, 03:23, торрент скачан: 359 раз

Понравилась раздача? Посмотрите эти:
  • Двойной агент / The Double (Майкл Брандт, боевик, триллер, драма, криминал, ...
  • Грязные игры / The Company You Keep (Роберт Редфорд, триллер, драма, 2012) ...
  • Бунраку / Bunraku (Гай Моше, боевик, триллер, драма, 2010) [BDRip-AVC, Проф ...
  • Погнали! / Getaway (Кортни Соломон, боевик, криминал, 2013) [BDRip-AVC, Про ...
  • Филадельфия / Philadelphia (Джонатан Демме, Драма, 1993) [BDRip-AVC, Профес ...
  • Невероятный Бёрт Уандерстоун / The Incredible Burt Wonderstone (Дон Скардин ...
  • Летучий отряд Скотланд-Ярда / The Sweeney (Ник Лав, Боевик, драма, криминал ...
  • Поймай толстуху, если сможешь / Identity Thief [Theatrical Cut] (Сет Гордон ...
  • Порочные игры / Stoker (Пак Чхан Ук, Триллер, драма, детектив, 2013) [BDRip ...
  • Порочные игры / Stoker (Пак Чхан Ук, Триллер, драма, детектив, 2013) [BDRip ...
  • Миллион для чайников / The Brass Teapot (Рамаа Мосли, драма, биография, ист ...
  • Больше, чем любовь / A Lot Like Love (Найджел Коул, Драма, мелодрама, комед ...
  • Запретная любовь / The Edge of Love (Джон Мэйбери, Драма, мелодрама, военны ...
  • Волшебная страна / Finding Neverland (Марк Форстер, Драма, семейный, биогра ...
  • АББА: фильм / ABBA: The Movie (документальный, драма, музыка, 1977) [BDRip- ...
  • Линкольн / Lincoln (Стивен Спилберг, драма, военный, биография, история, 20 ...
  • Крученый мяч / Trouble with the Curve (Роберт Лоренц, Драма, 2012) [BDRip-A ...
  • Суррогат / The Sessions (Бен Луин, Драма, 2012) [BDRip-AVC, Профессиональны ...
  • Начинающие / Beginners (Майк Миллс / Mike Mills, драма, мелодрама, комедия, ...
  • Ураган / The Hurricane (Норман Джуисон, драма, биография, спорт, 1999) [HDD ...
  • Эд Вуд / Ed Wood (Тим Бёртон, драма, комедия, биография, 1994) [BDRip-AVC, ...
  • Бульвар спасения / Salvation Boulevard (Джордж Рэтлифф, Боевик, триллер, др ...
  • Павшая империя / Hirokin (Алехо Мо-Сан, фантастика, боевик, драма, приключе ...
  • Боб Марли / Marley (Кевин МакДональд, Документальный, биография, музыка, 20 ...
  • Кадиллак Рекордс / Cadillac Records (Дарнелл Мартин мелодрама, драма, музы ...
  • Информация
    Посетители, находящиеся в группе Гости, не могут оставлять комментарии к данной публикации.