вход на сайт

Имя пользователя :
Пароль :

Восстановление пароля Регистрация
Сдохни, Джон Такер / John Tucker Must Die (Бетти Томас, мелодрама, комедия, 2006) [BDRip, Дубляж, Оригинал (английский), Украинский]
Рейтинг:
(голосов: 1)



[img]{THEME}/images/logopost.png[/img]



• Сдохни, Джон Такер / John Tucker Must Die •
♥ Год выпуска: 2006
♥ Страна: США, Канада
♥ Производство: 20th Century Fox Film Corporation,John US Productions,Landscape Entertainment
♥ Жанр: мелодрама, комедия

♥ Режиссёр: Бетти Томас
♥ В ролях: Джесси Меткалф, Бриттани Сноу, Ашанти, София Буш, Ариэль Кеббел, Пенн Бэджли, Дженни МакКарти, Фацо-Фасано, Кевин МакНалти, Патриция Дрэйк.

♥ Перевод: Дубляж (Русский + Украинский + Английский)
♥ Субтитры: Нет

♥ Описание: Три бывшие подружки крутого школьного ловеласа решают ему отомстить. Для приведения жестокого плана в действие нужна приманка. Выбор падает на только что переехавшую в их школу очаровательную блондиночку…



♥ Качество: BDRip
♥ Продолжительность: 01:29:51

♥ Формат: AVI
♥ Видео кодек: Xvid
♥ Аудио кодек: AC3
♥ Видео: 720х384 (1.85:1), 23,976 fps, XviD MPEG-4 1910 kbps avg, 0.28 bit/pixel
♥ Аудио#1: 48 kHz, AC3 5.1, 448.00 kbps | Русский
♥ Аудио#2: 48 kHz, AC3 5.1, 448.00 kbps | Украинский
♥ Аудио#3: 48 kHz, AC3 5.1, 448.00 kbps | (Английский)

♥ Дата премьеры (мир): 27 июля 2006
♥ Дата премьеры (РФ): 2 ноября 2006, «Гемини Киномир»

"Mediainfo" ▼
Формат : AVI
Формат/Информация : Audio Video Interleave
Профиль формата : OpenDML
Размер файла : 2,06 Гбайт
Продолжительность : 1 ч. 29 м.
Общий поток : 3278 Кбит/сек
Программа кодирования : VirtualDubModRus 1.5.10.2 (build 2542/release)
Библиотека кодирования : VirtualDubMod build 2542/release

Видео
Идентификатор : 0
Формат : MPEG-4 Visual
Профиль формата : Advanced [email protected]
Параметр BVOP формата : 1
Параметр QPel формата : Нет
Параметр GMC формата : Без точки перехода
Параметр матрицы формата : Выборочная
Режим смешивания : Сжатый битовый поток
Идентификатор кодека : XVID
Идентификатор кодека/Подсказка : XviD
Продолжительность : 1 ч. 29 м.
Битрейт : 1910 Кбит/сек
Ширина : 720 пикселей
Высота : 384 пикселя
Соотношение сторон : 1,85:1
Частота кадров : 23,976 кадра/сек
Цветовое пространство : YUV
Субдискретизация насыщенности : 4:2:0
Битовая глубина : 8 бит
Тип развёртки : Прогрессивная
Метод сжатия : С потерями
Бит/(Пиксели*Кадры) : 0.288
Размер потока : 1,20 Гбайт (58%)
Библиотека кодирования : XviD 65

Аудио #1
Идентификатор : 1
Формат : AC-3
Формат/Информация : Audio Coding 3
Расширение режима : CM (complete main)
Параметр Endianness формата : Big
Идентификатор кодека : 2000
Продолжительность : 1 ч. 29 м.
Вид битрейта : Постоянный
Битрейт : 448 Кбит/сек
Каналы : 6 каналов
Расположение каналов : Front: L C R, Side: L R, LFE
Частота : 48,0 КГц
Битовая глубина : 16 бит
Метод сжатия : С потерями
Размер потока : 288 Мбайт (14%)
Выравнивание : Разделение по промежуткам
Продолжительность промежутка : 42 мс. (1,00 видеокадр)
Время предзагрузки промежутка : 500 мс.
Заголовок : Дубляж - Русский

Аудио #2
Идентификатор : 2
Формат : AC-3
Формат/Информация : Audio Coding 3
Расширение режима : CM (complete main)
Параметр Endianness формата : Big
Идентификатор кодека : 2000
Продолжительность : 1 ч. 29 м.
Вид битрейта : Постоянный
Битрейт : 448 Кбит/сек
Каналы : 6 каналов
Расположение каналов : Front: L C R, Side: L R, LFE
Частота : 48,0 КГц
Битовая глубина : 16 бит
Метод сжатия : С потерями
Размер потока : 288 Мбайт (14%)
Выравнивание : Разделение по промежуткам
Продолжительность промежутка : 42 мс. (1,00 видеокадр)
Время предзагрузки промежутка : 500 мс.
Заголовок : Дубляж - Украинский

Аудио #3
Идентификатор : 3
Формат : AC-3
Формат/Информация : Audio Coding 3
Расширение режима : CM (complete main)
Параметр Endianness формата : Big
Идентификатор кодека : 2000
Продолжительность : 1 ч. 29 м.
Вид битрейта : Постоянный
Битрейт : 448 Кбит/сек
Каналы : 6 каналов
Расположение каналов : Front: L C R, Side: L R, LFE
Частота : 48,0 КГц
Битовая глубина : 16 бит
Метод сжатия : С потерями
Размер потока : 288 Мбайт (14%)
Выравнивание : Разделение по промежуткам
Продолжительность промежутка : 42 мс. (1,00 видеокадр)
Время предзагрузки промежутка : 500 мс.
6deb20f51ead61197230dc53a350dd24e1b6a176Сдохни, Джон Такер / John Tucker Must Die (Бетти Томас, мелодрама, комедия, 2006) [BDRip, Дубляж, Оригинал (английский), Украинский] Сдохни, Джон Такер / John Tucker Must Die (Бетти Томас, мелодрама, комедия, 2006) [BDRip, Дубляж, Оригинал (английский), Украинский] " />

Аплоадер: Админ, дата: 7-12-2012, 06:10, торрент скачан: 359 раз

Понравилась раздача? Посмотрите эти:
  • Бойфренд из будущего / About Time (Ричард Кёртис, Фантастика, драма, комеди ...
  • Одноклассники 2 / Grown Ups 2 (Деннис Дуган, Комедия, 2013) [BDRip, Професс ...
  • Паприка / Paprika // Фильм 1, эпизод 1 (из 1) (2006) [BDRip, профессиональн ...
  • Кровью и потом: Анаболики / Pain & Gain (Майкл Бэй, криминал, комедия, трил ...
  • Миллион для чайников / The Brass Teapot (Рамаа Мосли, Фэнтези, триллер, ком ...
  • Миллион для чайников / The Brass Teapot (Рамаа Мосли, Фэнтези, триллер, ком ...
  • Астрал на улице Арлетт / 388 Arletta Avenue (Рэндолл Коул, Триллер, 2011) [ ...
  • Сдохни, Джон Такер / John Tucker Must Die (Бетти Томас / Betty Thomas, Коме ...
  • Криминальная фишка от Генри / Henrys Crime (Малькольм Венвилль, мелодрама, ...
  • Жил-был тигр / Ek Tha Tiger (Кабир Кхан, боевик, триллер , 2012) [ HDRip, ...
  • Легенда о МорДу / The Legend of MorDu (Брайан Ларсен, Короткометражный, ска ...
  • Глядя на полумесяц / Hanbun no Tsuki ga Noboru Sora // Сезон 1, Эпизоды с 1 ...
  • Путешествие на дно моря / Voyage to the Bottom of the Sea (Ирвин Аллен / I ...
  • Кажется, я люблю свою жену / I Think I Love My Wife (Крис Рок, Драма, мелод ...
  • Боец из трущоб / Gutter King (Кейт Алан Моррис / Keith Alan Morris, боевик, ...
  • Сдохни, Джон Такер! / John Tucker Must Die! (Бетти Томас, Комедия, 2006) [D ...
  • Черная Маска / Black Mask (Дэниэл Ли, фантастика, боевик, триллер, комедия, ...
  • Сдохни, Джон Такер! [Расширенная версия] / John Tucker Must Die [Unrated Cu ...
  • Приключения Тинтина: Тайна Единорога / The Adventures of Tintin (Стивен Спи ...
  • Гениальный папа / Father of Invention (Трент Купер, Драма, комедия, 2010) [ ...
  • Жизнь за гранью / After.Life (Агнешка Войтович-Восло, Ужасы, триллер, драм ...
  • Глаз шторма / The Eye of the Storm (Фред Скеписи, Драма, 2011) [HDRip, Проф ...
  • Шаг вперед 4 / Step Up Revolution (Скотт Спир, Драма, мелодрама, музыка, 20 ...
  • Шаг вперед 4 / Step Up Revolution (Скотт Спир, Драма, мелодрама, музыка, 20 ...
  • Человек из банки (Иван Кульнев, Комедия, 2012) [DVDRip, Не требуется]
  • Информация
    Посетители, находящиеся в группе Гости, не могут оставлять комментарии к данной публикации.