вход на сайт

Имя пользователя :
Пароль :

Восстановление пароля Регистрация
Шаг вперед 4 / Step Up Revolution (Скотт Спир, Драма, мелодрама, музыка, 2012) [BDRip, Дубляж]
Рейтинг:
(голосов: 1)



[img]{THEME}/images/logopost.png[/img]



Шаг вперед 4 / Step Up Revolution
«Горячее не бывает»


Год выпуска: 2012
Страна: США
Производство: Offspring Entertainment, Summit Entertainment
Жанр: драма, мелодрама, музыка

Режиссёр: Скотт Спир
В ролях: Райан Гузман, Кэтрин МакКормик, Миша Гэбриел Хэмилтон, Клеопатра Коулмэн, Стивен Стэннерт, Томми Дьюи, Питер Галлахер, Майкл «Ксено» Лэнджбек, Клаудио Пинто, Николь Дабо

Перевод: Дубляж
Субтитры: Отсутствуют

Описание: Эмили, дочь влиятельного бизнесмена, приезжает в Майами с намерением стать профессиональной танцовщицей, но влюбляется в Шона — юношу, чья танцевальная труппа устраивает музыкальные флэшмобы. Команда, называющаяся MOB, участвует в конкурсе с внушительным денежным призом, а тем временем отец Эмили намеревается перестроить родной район ребят и переселить тысячи людей. Эмили присоединяется к танцорам и организует протестные мобы, рискуя не осуществить мечту, но сражаясь за нечто более важное.

Торрент перезалит. Замена на BDRip



Качество: BDRip |Сэмпл
Продолжительность: 01:38:39 час.


Формат: AVI
Видео кодек: XviD
Аудио кодек: AC3
Видео: 720x304 (2,35:1), 23.976 fps, XviD build 65 ~1661 kbps avg, 0.316 bit/pixel
Аудио: 48 kHz, AC3 Dolby Digital, 3/2 (L,C,R,l,r) + LFE ch, ~448 kbps

Дата премьеры (мир): 26 июля 2012
Дата премьеры (РФ): 26 июля 2012, «West»

MediaInfo| ▼
Общее
Полное имя : D:Step.Up.Revolution.2012.Dub.BDRip.XviD.AC3.avi
Формат : AVI
Формат/Информация : Audio Video Interleave
Размер файла : 1,46 Гбайт
Продолжительность : 1 ч. 38 м.
Общий поток : 2118 Кбит/сек
Программа кодирования : VirtualDubModRus 1.5.10.2 (build 2542/release)
Библиотека кодирования : VirtualDubMod build 2542/release

Видео
Идентификатор : 0
Формат : MPEG-4 Visual
Профиль формата : Advanced [email protected]
Параметр BVOP формата : 1
Параметр QPel формата : Нет
Параметр GMC формата : Без точки перехода
Параметр матрицы формата : Выборочная
Идентификатор кодека : XVID
Идентификатор кодека/Подсказка : XviD
Продолжительность : 1 ч. 38 м.
Битрейт : 1661 Кбит/сек
Ширина : 720 пикселей
Высота : 304 пикселя
Соотношение сторон : 2,35:1
Частота кадров : 23,976 кадра/сек
Цветовое пространство : YUV
Субдискретизация насыщенности : 4:2:0
Битовая глубина : 8 бит
Тип развёртки : Прогрессивная
Метод сжатия : С потерями
Бит/(Пиксели*Кадры) : 0.316
Размер потока : 1,14 Гбайт (78%)
Библиотека кодирования : XviD 65

Аудио
Идентификатор : 1
Формат : AC-3
Формат/Информация : Audio Coding 3
Расширение режима : CM (complete main)
Идентификатор кодека : 2000
Продолжительность : 1 ч. 38 м.
Вид битрейта : Постоянный
Битрейт : 448 Кбит/сек
Каналы : 6 каналов
Расположение каналов : Front: L C R, Side: L R, LFE
Частота : 48,0 КГц
Битовая глубина : 16 бит
Метод сжатия : С потерями
Размер потока : 316 Мбайт (21%)
Выравнивание : Разделение по промежуткам
Продолжительность промежутка : 42 мс. (1,00 видеокадр)
Время предзагрузки промежутка : 500 мс.
Заголовок : Rus Dub








d2e639b135a88790fee4b152c7633bfd4662c61dШаг вперед 4 / Step Up Revolution (Скотт Спир, Драма, мелодрама, музыка, 2012) [BDRip, Дубляж] Шаг вперед 4 / Step Up Revolution (Скотт Спир, Драма, мелодрама, музыка, 2012) [BDRip, Дубляж] " />

Аплоадер: Админ, дата: 1-12-2012, 15:15, торрент скачан: 359 раз

Понравилась раздача? Посмотрите эти:
  • Jennifer Lopez Feat. Flo Rida / Goin In (Step Up Revolution OST) [2012, Syn ...
  • Timbaland Feat. Ne-Yo / Hands In The Air (Step Up Revolution OST) [2012, Da ...
  • Миллион для чайников / The Brass Teapot (Рамаа Мосли, Фэнтези, триллер, ком ...
  • [EN] Шаг вперед 4 / Step Up Revolution (Скотт Спир, драма, мелодрама, музык ...
  • Шаг вперед 4 / Step Up Revolution (Скотт Спир, Драма, мелодрама, музыка, 20 ...
  • Шаг вперед 4 / Step Up Revolution (Скотт Спир, Драма, мелодрама, музыка, 20 ...
  • Шаг вперед 4 / Step Up Revolution (Скотт Спир, Драма, мелодрама, музыка, 20 ...
  • Легенда о МорДу / The Legend of MorDu (Брайан Ларсен, Короткометражный, ска ...
  • [3D] Шаг вперед 4 / Step Up Revolution (Скотт Спир, драма, мелодрама, музык ...
  • [3D] Шаг вперед 4 / Step Up Revolution (Скотт Спир / Scott Speer, Мелодрама ...
  • Шаг вперед 4 / Step Up Revolution (Скотт Спир, драма, мелодрама, музыка, 20 ...
  • Шаг вперед 4 / Step Up Revolution (Скотт Спир, драма, мелодрама, музыка, 20 ...
  • Шаг вперед 4 / Step Up Revolution (Скотт Спир, драма, мелодрама, музыка, 20 ...
  • [Phone, iPod] Шаг вперед 4 / Step Up Revolution (Скотт Спир, драма, мелодра ...
  • Гениальный папа / Father of Invention (Трент Купер, Драма, комедия, 2010) [ ...
  • [3D] Шаг вперед 4 / Step Up Revolution (Скотт Спир, драма, мелодрама, музык ...
  • Шаг вперед 4 / Step Up Revolution (Скотт Спир, Драма, мелодрама, музыка, 20 ...
  • Шаг вперед 4 / Step Up Revolution (Скотт Спир, Драма, мелодрама, музыка, 20 ...
  • Шаг вперед 4 / Step Up Revolution (Скотт Спир, Драма, мелодрама, музыка, 20 ...
  • Сдохни, Джон Такер / John Tucker Must Die (Бетти Томас, мелодрама, комедия, ...
  • Информация
    Посетители, находящиеся в группе Гости, не могут оставлять комментарии к данной публикации.