вход на сайт

Имя пользователя :
Пароль :

Восстановление пароля Регистрация
Мемуары гейши / Memoirs of a Geisha (Роб Маршалл, драма, мелодрама, 2005) [HDRip, Профессиональный (полное дублирование)]
Рейтинг:
(голосов: 1)



[img]{THEME}/images/logopost.png[/img]



Мемуары гейши / Memoirs of a Geisha

Год выпуска: 2005
Страна: США
Производство: Amblin Entertainment, Columbia Pictures Corporation, DreamWorks SKG, Red Wagon Productions, Spyglass Entertainment
Жанр: драма, мелодрама

Режиссёр: Роб Маршалл
В ролях:Чжан Цзыи, Гун Ли, Мишель Йео, Кен Ватанабе, Йоуки Кудо, Сузука Ого, Мако, Кэри-Хироюки Тагава, Кодзи Якусё, Каори Момои

Перевод: Профессиональный (полное дублирование)
Субтитры: нет

Описание: Маленькую прелестную девочку из бедной японской семьи отдают в услужение в дом гейш. С годами красавица расцветает и познает все таинства этой профессии. Самые влиятельные мужчины становятся пленниками знаменитой гейши по имени Сайюри, достигшей совершенства в своем искусстве. Но в сердце Сайюри теплится любовь к тому, над которым ее чары не властны. Тайну своей любовной страсти она доверяет лишь страницам дневника…



Качество: HDRip | Сэмпл
Продолжительность: 02:25:08

Формат: AVI
Видео кодек: XviD
Аудио кодек: AС3
Видео: 720x304(2.35:1), 23.976 fps, AVI ~ 1 232 kbs avg, 0.235 bit/p
Аудио: 48.0 KHz,AC3, 2 ch, 192 Кбит/с

Дата премьеры (мир): 29 ноября 2005
Дата премьеры (РФ): 19 января 2006, «Парадиз»

"Media Info" ▼
TextGeneral
Format : AVI
Format/Info : Audio Video Interleave
File size : 1.45 GiB
Duration : 2h 25mn
Overall bit rate : 1 433 Kbps
Writing application : VirtualDubMod 1.5.10.2 (build 2540/release)
Writing library : VirtualDubMod build 2540/release
Video #0
ID : 0
Format : MPEG-4 Visual
Format profile : Advanced [email protected]
Format settings, BVOP : 1
Format settings, QPel : No
Format settings, GMC : No warppoints
Format settings, Matrix : Custom
Codec ID : XVID
Codec ID/Hint : XviD
Duration : 2h 25mn
Bit rate : 1 232 Kbps
Width : 720 pixels
Height : 304 pixels
Display aspect ratio : 2.35:1
Frame rate : 23.976 fps
Color space : YUV
Chroma subsampling : 4:2:0
Bit depth : 8 bits
Scan type : Progressive
Compression mode : Lossy
Bits/(Pixel*Frame) : 0.235
Stream size : 1.25 GiB (86%)
Writing library : XviD 1.2.1 (UTC 2008-12-04)
Audio #1
ID : 1
Format : AC-3
Format/Info : Audio Coding 3
Mode extension : CM (complete main)
Format settings, Endianness : Big
Codec ID : 2000
Duration : 2h 25mn
Bit rate mode : Constant
Bit rate : 192 Kbps
Channel(s) : 2 channels
Channel positions : Front: L R
Sampling rate : 48.0 KHz
Bit depth : 16 bits
Compression mode : Lossy
Stream size : 199 MiB (13%)
Alignment : Split accross interleaves
Interleave, duration : 42 ms (1.00 video frame)
Interleave, preload duration : 500 ms


34cfe8e39fc625202174b8bc01b3af2130a66aa9Мемуары гейши / Memoirs of a Geisha (Роб Маршалл, драма, мелодрама, 2005) [HDRip, Профессиональный (полное дублирование)] Мемуары гейши / Memoirs of a Geisha (Роб Маршалл, драма, мелодрама, 2005) [HDRip, Профессиональный (полное дублирование)] " />

Аплоадер: Админ, дата: 24-10-2012, 06:57, торрент скачан: 359 раз

Понравилась раздача? Посмотрите эти:
  • Вирус / Flu (Ким Сон Су, Драма, 2013) [HDTVRip, Любительский (двухголосый з ...
  • Верное дельце / Une pure affaire (Александр Коффре, Боевик, Комедия, Кримин ...
  • Мои герои / Mes heros (Эрик Беснард, комедия, 2012) [HDRip, Профессиональны ...
  • Мужество / Wymyk (Грег Зглински, драма, 2011) [DVDRip, Любительский (одного ...
  • 42 / 42 (Брайан Хелгеленд, драма, биография, спорт, 2013) [BDRip, Профессио ...
  • Звук моего голоса / Sound of My Voice (Зал Батманглидж, триллер, драма, 201 ...
  • Слепой поворот / Blind Turn (Роберт Орр, Триллер, драма, детектив, 2012) [W ...
  • 23:59 / 23:59 (Гилберт Чан, Ужасы, 2011) [HDRip, Любительский (одноголосый ...
  • Любовь на кончиках пальцев / Populaire (Режис Ройнсар, Мелодрама, комедия, ...
  • Безопасность не гарантируется / Safety Not Guaranteed (Колин Треворроу, фан ...
  • В хлам / Smashed (Джеймс Понсольдт, Драма, комедия, 2012) [HDRip, Профессио ...
  • Весенние надежды / Hope Springs (Дэвид Фрэнкел, Драма, мелодрама, комедия, ...
  • Экипаж / Flight (Роберт Земекис, Драма, 2012) [BDRip, Профессиональный (пол ...
  • В доме / Dans la maison (Франсуа Озон, Триллер, детектив, 2012) [HDRip, Про ...
  • Мемуары гейши / Memoirs of a Geisha (Роб Маршалл, драма, мелодрама, 2005) [ ...
  • Плохая актриса / Bad Actress (Роберт Ли Кинг, комедия, 2011) [DVDRip, Профе ...
  • Доля ангелов / The Angels Share (Кен Лоуч, драма, комедия, 2012) [HDRip, Пр ...
  • Мемуары гейши / Memoirs of a Geisha (Роб Маршалл, драма, мелодрама, 2005) [ ...
  • Захват / Carjacked (Джон Бонито, триллер, 2011)[BDRip, Профессиональный (мн ...
  • Коллекционер 2 / The Collection (Маркус Данстэн, ужасы, боевик, триллер , 2 ...
  • Tank Feat. T.I. & Kris Stephens / Compliments [2012, RnB,Hip-Hop, HDRip]
  • Супершторм в Сиэтле / Seattle Superstorm (Джейсон Бурк, фантастика, боевик ...
  • Девушки в опасности / Damsels in Distress (Уит Стиллман, драма, мелодрама, ...
  • Глаз шторма / The Eye of the Storm (Фред Скеписи, Драма, 2011) [HDRip, Проф ...
  • Табу / Tabu (Мигель Гомеш, Драма, мелодрама, 2012) [DVDRip, Профессиональны ...
  • Информация
    Посетители, находящиеся в группе Гости, не могут оставлять комментарии к данной публикации.