вход на сайт

Имя пользователя :
Пароль :

Восстановление пароля Регистрация
Мадо: До востребования / Mado, Poste Restante (Александр Адабашьян, мелодрама, 1990) [DVDRip, Профессиональный (многоголосый, закадровый)]
Рейтинг:
(голосов: 1)



[img]{THEME}/images/logopost.png[/img]



Мадо: До востребования / Mado, Poste Restante

Год выпуска: 1990
Страна: Франция
Производство: Barnaba Films, Films A2
Жанр: мелодрама

Режиссёр: Александр Адабашьян
В ролях: Марианна Грове, Олег Янковский, Изабель Желина, Жан-Пьер Дарруссен, Бернар Фрей, Андре Помарат, Мишель Виноградов, Оливье Пажо

Перевод: Профессиональный (многоголосый, закадровый)
Субтитры: Отсутствуют

Описание:
В провинциальном городке, где все друг друга знают и годами ничего не происходит, живет добродушная толстушка Мадо. Выросшая в монастыре, теперь она развозит на велосипеде почту и каждому стремится хоть чем-нибудь помочь.

Словно ангел-хранитель, Мадо подглядывает за чужими страстями и мечтает когда-нибудь и сама встретить прекрасного принца. И вот однажды, весь в белом, к ним приезжает таинственный режиссёр, чью роль исполнил народный артист СССР и мечта миллионов советских женщин…


Дополнительно:
MediaInfo ▼Text
Общее
Полное имя :J:Кинокопилка.РуРАЗДАЧАМадо До востребованияМадо_до_востребования.avi
Формат :AVI
Размер :700 MiB
Продолжительность :01:36:01.983
Общий поток :1 019 Kbps

Видео
Идентификатор :0
Формат :MPEG-4 Visual
Профиль формата :[email protected]
Параметр BVOP формата :No
Параметр Qpel формата :No
Параметр GMC формата :0
Параметр Matrix формата :Default (H.263)
Идентификатор кодека :DX50
Продолжительность :1h 36mn 1s 960ms
Битрейт :878 Kbps
Ширина :688 pixels
Высота :432 pixels
Соотношение сторон :1.593
Частота кадров :25.000 fps
Глубина цвета :8 bits
Подвыборка цветности :4:2:0
Цветовое пространство :YUV
Тип развертки :Progressive
Бит/(Пиксели*Кадры) :0.118
Размер потока :603 MiB (86%)
Библиотека кодирования :Lavc51.28.0

Аудио #1
Идентификатор :1
Формат :MPEG Audio
Идентификатор кодека :55
Продолжительность :01:36:01.983
Вид битрейта :Constant
Битрейт :128 Kbps
Канал(ы) :2 channels
Частота :44.1 KHz
Метод сжатия :Lossy
Размер потока :87.9 MiB (13%)Тех. данные:
Качество:DVDRip
Продолж
2e26f779dbc182475f4cf35436b3afb1998d123dМадо: До востребования / Mado, Poste Restante (Александр Адабашьян, мелодрама, 1990) [DVDRip, Профессиональный (многоголосый, закадровый)] Мадо: До востребования / Mado, Poste Restante (Александр Адабашьян, мелодрама, 1990) [DVDRip, Профессиональный (многоголосый, закадровый)] " />

Аплоадер: Админ, дата: 23-08-2012, 02:01, торрент скачан: 359 раз

Понравилась раздача? Посмотрите эти:
  • Вечерние посетители / Les visiteurs du soir (Марсель Карне, фэнтези, драма, ...
  • Однажды на матрасе / Once Upon a Mattress (Кэтлин Маршалл, мюзикл, мелодрам ...
  • Два гусара (Вячеслав Криштофович, мелодрама, 1984) [DVDRip, Не требуется]
  • Высота (Александр Зархи, мелодрама, 1957) [DVDRip, Не требуется]
  • Уж кто бы говорил 2 / Look Whos Talking Too (Эми Хекерлинг, мелодрама, коме ...
  • Магазинчик за углом / The Shop Around the Corner (Эрнст Любич, драма, мелод ...
  • Молчание - золото / Le silence est dor (Рене Клер, мелодрама, комедия, 1947 ...
  • А ей ни слова обо мне / Dont Tell Her Its Me (Малкольм Маубрэй, Мелодрама, ...
  • Джентельменское соглашение / Gentlemans Agreement (Элиа Казан, драма, мелод ...
  • С террасы / From the Terrace (Марк Робсон, драма, мелодрама, 1960) [DVDRip, ...
  • Таинственный остров / Остров приключений / Mysterious Island (Сай Эндфилд, ...
  • Вальсирующие / Les valseuses (Бертран Блие, драма, комедия, криминал, 1966) ...
  • Укрощение строптивой / The Taming of the Shrew (Франко Дзеффирелли, комедия ...
  • Солдат удачи / Soldier of Fortune (Эдвард Дмитрык, приключения, драма, 1955 ...
  • Лето с Моникой / Sommaren med Monika (Ингмар Бергман, драма, мелодрама, 195 ...
  • Микки и Мод / Micki + Maude (Блейк Эдвардс, Мелодрама, комедия, 1983) [DVDR ...
  • Мы поедем в Дювиль / Nous irons a Deauville (Френсис Риго, комедия, 1962) [ ...
  • День добрый, улыбка! / Bonjour sourire! (Клод Соте, комедия, 1956) [DVDRip, ...
  • Мой дядюшка / Mon oncle (Жак Тати, комедия, 1958) [DVDRip, Профессиональный ...
  • Свяжи меня / Atame! (Педро Альмодовар, драма, мелодрама, комедия, криминал, ...
  • Вдова Кудер / La veuve Couderc (Пьер Гранье-Дефер, боевик, драма, мелодрама ...
  • Дикие дни / A Fei jingjyuhn (Вонг Кар-Вай, драма, мелодрама, криминал, 1990 ...
  • Уик-энд / Week End (Жан-Люк Годар, драма, комедия, 1967) [DVDRip, Профессио ...
  • Улица Прери / Rue des Prairies (Дени де Ла Пательер, драма, 1959) [DVDRip, ...
  • Улыбки летней ночи / Sommarnattens leende (Ингмар Бергман, мелодрама, комед ...
  • Информация
    Посетители, находящиеся в группе Гости, не могут оставлять комментарии к данной публикации.