вход на сайт

Имя пользователя :
Пароль :

Восстановление пароля Регистрация
Голова в облаках / Head in the Clouds (Джон Дайган, мелодрама, 2004) [HDRip, Профессиональный (Полное дублирование)]
Рейтинг:
(голосов: 1)



[img]{THEME}/images/logopost.png[/img]



Голова в облаках / Head in the Clouds

Год выпуска: 2004
Страна: США
Выпущено: Dakota Films
Жанр: мелодрама

Режиссёр: Джон Дайган
В главных ролях: Шарлиз Терон,Пенелопа Круз, Стюарт Таунсенд,Томас Кретшманн,Стивен Беркофф,Давид Ла Эй

Перевод: Профессиональный (Полное дублирование)
Субтитры: Нет

О фильме: Лондон, Париж, Мадрид... Европа 30-х годов была готова предоставить им любые удовольствия. Свободная любовь, богемные друзья, легкие деньги. У англичанки Гильды, ирландца Гая и испанки Мии была квартира в центре Парижа и любовь, которую они делили на троих... Но воздух Монмартра уже наполнен предчувствием беды, которая грозит разлучить их навсегда...


IMDB: 6.30 (4 751)
КиноПоиск: 7.9862 212
Rip by: Scarabey

Качество: HDRip
Продолжительность: 01:59:15
"Media Info" ▼C:UsersÍóðáåêDownloadsGolova_v_oblakah_HDRip.avi
General
Complete name : C:UsersÍóðáåêDownloadsGolova_v_oblakah_HDRip.avi
Format : AVI
Format/Info : Audio Video Interleave
File size : 1.45 GiB
Duration : 1h 59mn
Overall bit rate : 1 742 Kbps
Writing application : VirtualDubMod 1.5.10.2 (build 2540/release)
Writing library : VirtualDubMod build 2540/release
Video #0
ID : 0
Format : MPEG-4 Visual
Format profile : Advanced [email protected]
Format settings, BVOP : Yes
Format settings, QPel : No
Format settings, GMC : No warppoints
Format settings, Matrix : Custom
Codec ID : XVID
Codec ID/Hint : XviD
Duration : 1h 59mn
Bit rate : 1 285 Kbps
Width : 720 pixels
Height : 304 pixels
Display aspect ratio : 2.35:1
Frame rate : 24.000 fps
Resolution : 8 bits
Colorimetry : 4:2:0
Scan type : Progressive
Bits/(Pixel*Frame) : 0.245
Stream size : 1.07 GiB (74%)
Writing library : XviD 1.2.1 (UTC 2008-12-04)
Audio #1
ID : 1
Format : AC-3
Format/Info : Audio Coding 3
Format_Settings_ModeExtension : CM (complete main)
Codec ID : 2000
Duration : 1h 59mn
Bit rate mode : Constant
Bit rate : 448 Kbps
Channel(s) : 6 channels
Channel positions : Front: L C R, Side: L R, LFE
Sampling rate : 48.0 KHz
Stream size : 382 MiB (26%)
Alignment : Split accross interleaves
Interleave, duration : 42 ms (1.00 video frame)
Interleave, preload duration : 500 ms
Формат: AVI
Видео кодек: XviD
Аудио кодек: AC3
Видео: 720x304 (2.37:1), 24.000 fps, XviD build 50 ~1284 kbps avg, 0.24 bit/pixel
Аудио: 48
7c5de7923722d952fc170bbebd39537dbfe85a0bГолова в облаках / Head in the Clouds (Джон Дайган, мелодрама, 2004) [HDRip, Профессиональный (Полное дублирование)] Голова в облаках / Head in the Clouds (Джон Дайган, мелодрама, 2004) [HDRip, Профессиональный (Полное дублирование)] " />

Аплоадер: Админ, дата: 7-08-2012, 19:44, торрент скачан: 359 раз

Понравилась раздача? Посмотрите эти:
  • Погнали! / Getaway (Кортни Соломон, Боевик, Криминал, 2013) [HDRip, Професс ...
  • Верное дельце / Une pure affaire (Александр Коффре, Боевик, Комедия, Кримин ...
  • Кодовое имя «Джеронимо» / Seal Team Six: The Raid on Osama Bin Laden (Джон ...
  • Мужество / Wymyk (Грег Зглински, драма, 2011) [DVDRip, Любительский (одного ...
  • Звук моего голоса / Sound of My Voice (Зал Батманглидж, триллер, драма, 201 ...
  • Прогулка в облаках / A Walk in the Clouds (Альфонсо Арау, драма, мелодрама, ...
  • Любовь по-взрослому / This Is 40 (Джудд Апатоу, Комедия, 2012) [HDRip,Профе ...
  • Любовь на кончиках пальцев / Populaire (Режис Ройнсар, Мелодрама, комедия, ...
  • В доме / Dans la maison (Франсуа Озон, Триллер, детектив, 2012) [HDRip, Про ...
  • Папа-досвидос / Thats My Boy (Шон Андерс, Комедия, 2012) [HDRip, Профессион ...
  • Любовь по правилам и без / Somethings Gotta Give (Нэнси Майерс, комедия, ме ...
  • Захват / Carjacked (Джон Бонито, триллер, 2011)[BDRip, Профессиональный (мн ...
  • Коллекционер 2 / The Collection (Маркус Данстэн, ужасы, боевик, триллер , 2 ...
  • Голова в облаках / Head in the Clouds (Джон Дуиган, Драма, мелодрама, военн ...
  • Мартовские иды / The Ides of March (Джордж Клуни, Драма, 2011) [HDRip, Полн ...
  • Супершторм в Сиэтле / Seattle Superstorm (Джейсон Бурк, фантастика, боевик ...
  • Планета сокровищ / Treasure Planet (Рон Клементс, Джон Маскер, Мультфильм, ...
  • Девушки в опасности / Damsels in Distress (Уит Стиллман, драма, мелодрама, ...
  • Мемуары гейши / Memoirs of a Geisha (Роб Маршалл, драма, мелодрама, 2005) [ ...
  • Вся правда о любви / The Truth About Love (Джон Хэй, мелодрама, комедия, 20 ...
  • Информация
    Посетители, находящиеся в группе Гости, не могут оставлять комментарии к данной публикации.