вход на сайт

Имя пользователя :
Пароль :

Восстановление пароля Регистрация
Английский пациент / The English Patient (Энтони Мингелла, мелодрама, военный, 1996) [BDRip, Профессиональный (многоголосый закадровый)]
Рейтинг:
(голосов: 1)



[img]{THEME}/images/logopost.png[/img]



Английский пациент / The English Patient

Cлоган:«In memory, love lives forever.»

Год выпуска: 1996
Страна: США, Великобритания
Выпущено: Miramax Films
Жанр: мелодрама, военный

Режиссёр: Энтони Мингелла
В главных ролях: Рэйф Файннс /Ralph Fiennes/, Жюльет Бинош /Juliette Binoche/, Уиллем Дэфо /Willem Dafoe/, Кристин Скотт Томас /Kristin Scott Thomas/, Нэвин Эндрюс /Naveen Andrews/, Колин Фёрт /Colin Firth/, Джулиан Уэдэм /Julian Wadham/, Юрген Прохнов /Jurgen Prochnow/, Кевин Уотли /Kevin Whately/, Клайв Меррисон /Clive Merrison/

Перевод: Профессиональный (многоголосый закадровый)
Субтитры: Нет

О фильме: Вторая мировая война близится к концу. Молодая канадская медсестра ухаживает на заброшенной вилле за своим «английским пациентом», который получил страшные ожоги во время авиакатастрофы в пустыне Сахара.






Качество: BDRip
Продолжительность: 2:41:44
"Media Info" ▼C:UsersÍóðáåêDownloadsThe English Patient (1996).avi
General
Complete name : C:UsersÍóðáåêDownloadsThe English Patient (1996).avi
Format : AVI
Format/Info : Audio Video Interleave
Format profile : OpenDML
File size : 2.18 GiB
Duration : 2h 41mn
Overall bit rate : 1 930 Kbps
Director : nigoz
Original source form/Distributed by : BDRemux 1080p
Writing application : VirtualDubMod 1.5.10.2 (build 2540/release)
Writing library : VirtualDub build 32842/release
Copyright : torrents.by
Video #0
ID : 0
Format : MPEG-4 Visual
Format profile : Advanced [email protected]
Format settings, BVOP : Yes
Format settings, QPel : No
Format settings, GMC : No warppoints
Format settings, Matrix : Default (MPEG)
Codec ID : XVID
Codec ID/Hint : XviD
Duration : 2h 41mn
Bit rate : 1 535 Kbps
Width : 720 pixels
Height : 384 pixels
Display aspect ratio : 1.875
Frame rate : 23.976 fps
Resolution : 8 bits
Colorimetry : 4:2:0
Scan type : Progressive
Bits/(Pixel*Frame) : 0.232
Stream size : 1.73 GiB (79%)
Writing library : XviD 1.2.0.dev47 (UTC 2006-11-01)
Audio #1
ID : 1
Format : AC-3
Format/Info : Audio Coding 3
Format_Settings_ModeExtension : CM (complete main)
Codec ID : 2000
Duration : 2h 41mn
Bit rate mode : Constant
Bit rate : 384 Kbps
Channel(s) : 6 channels
Channel positions : Front: L C R, Side: L R, LFE
Sampling rate : 48.0 KHz
Stream size : 444 MiB (20%)
 
006cd8b05d932cca214212ace1bc96a348dd1c17Английский пациент / The English Patient (Энтони Мингелла, мелодрама, военный, 1996) [BDRip, Профессиональный (многоголосый закадровый)] Английский пациент / The English Patient (Энтони Мингелла, мелодрама, военный, 1996) [BDRip, Профессиональный (многоголосый закадровый)] " />

Аплоадер: Админ, дата: 3-08-2012, 21:17, торрент скачан: 359 раз

Понравилась раздача? Посмотрите эти:
  • Кризисный момент / Crisis Point (Адриан Уиллс, Триллер, 2012) [HDTVRip, Про ...
  • Непристойная комедия / InAPPropriate Comedy (Винс Оффер, комедия, 2013) [D ...
  • Миддлтон / At Middleton (Адам Роджерс, Мелодрама, 2013) [DVDRip, Профессион ...
  • Английский пациент / The English Patient (Энтони Мингелла, драма, мелодрама ...
  • 42 / 42 (Брайан Хелгеленд, драма, биография, спорт, 2013) [BDRip, Профессио ...
  • Слабые проблески / Rushlights (Энтони Стац, Триллер, Мелодрама, Криминал, 2 ...
  • Тело как улика / Body of Evidence (Ули Эдел, Триллер, Драма, Мелодрама, 199 ...
  • Один прекрасный день / One fine day (Майкл Хоффман, Драма, Мелодрама, Комед ...
  • МЫ. Верим в любовь / W.E. (Мадонна, Драма, мелодрама, история, 2011) [BDRip ...
  • Запретная любовь / The Edge of Love (Джон Мэйбери, Драма, мелодрама, военны ...
  • Безопасность не гарантируется / Safety Not Guaranteed (Колин Треворроу, фан ...
  • Лучший стрелок / Top Gun (Тони Скотт, боевик, драма, мелодрама, 1986) [BDRi ...
  • Без всего / Sin ella (Джордже Колон, Мелодрама, 2010) [HDTVRip , Профессион ...
  • Джефф, живущий дома / Jeff, Who Lives at Home (Джей Дюпласс, Марк Дюпласс, ...
  • Захват / Carjacked (Джон Бонито, триллер, 2011)[BDRip, Профессиональный (мн ...
  • Английский пациент / The English Patient (Энтони Мингелла, мелодрама, драм ...
  • Романтики / The Romantics (Галт Нидерхоффер, Драма, мелодрама, комедия, 201 ...
  • Супершторм в Сиэтле / Seattle Superstorm (Джейсон Бурк, фантастика, боевик ...
  • Девушки в опасности / Damsels in Distress (Уит Стиллман, драма, мелодрама, ...
  • Английский пациент / The English Patient (Энтони Мингелла, драма, мелодрама ...
  • Информация
    Посетители, находящиеся в группе Гости, не могут оставлять комментарии к данной публикации.