вход на сайт

Имя пользователя :
Пароль :

Восстановление пароля Регистрация
Желтый платочек счастья / The Yellow Handkerchief (Юдайан Прасад, мелодрама, драма, 2008) [DVDRip, Профессиональный (двухголосый закадровый)]
Рейтинг:
(голосов: 1)



[img]{THEME}/images/logopost.png[/img]



Желтый платочек счастья / The Yellow Handkerchief

Год выпуска: 2008
Страна: США
Выпущено: ArthurCohn production
Жанр: мелодрама, драма

Режиссёр: Юдайан Прасад
В главных ролях: Уильям Хёрт, Мария Белло, Кристен Стюарт, Эдди Редмэйн, Эммануель Кон, Нурит Кон, Вероника Расселл, Эрик Ф. Адамс, Росс Бритс, Лиша Брок, Виктор Брюнетт, Люси Фауст

Перевод: Профессиональный (двухголосый закадровый)
Субтитры: Нет

О фильме: Бретт Хэнсон — преступник, которого только что выпустили на свободу, он совершил непредумышленное убийство и шесть лет отсидел в тюрьме. Вскоре его попутчиками становятся подросток Мартин и её приятель Горди.
У каждого из участников этого путешествия своя цель: Мартин убегает от родителей, Горди пытается стать ближе к Мартин, а Брэтт должен решить, хочет ли он начать новую жизнь или вернуться к прошлому, в котором его ждет любимая женщина.




Качество: DVDRip
Продолжительность: 01:35:40 час
"Media Info" ▼C:UsersÍóðáåêDownloadseltyi_platochek_schastja.avi
General
Complete name : C:UsersÍóðáåêDownloadseltyi_platochek_schastja.avi
Format : AVI
Format/Info : Audio Video Interleave
File size : 746 MiB
Duration : 1h 35mn
Overall bit rate : 1 090 Kbps
Writing application : VirtualDubModRus 1.5.10.2 (build 2542/release)
Writing library : VirtualDubMod build 2542/release
Video #0
ID : 0
Format : MPEG-4 Visual
Format profile : Advanced [email protected]
Format settings, BVOP : Yes
Format settings, QPel : No
Format settings, GMC : No warppoints
Format settings, Matrix : Custom
Codec ID : XVID
Codec ID/Hint : XviD
Duration : 1h 35mn
Bit rate : 953 Kbps
Width : 656 pixels
Height : 272 pixels
Display aspect ratio : 2.40:1
Frame rate : 23.976 fps
Resolution : 8 bits
Colorimetry : 4:2:0
Scan type : Progressive
Bits/(Pixel*Frame) : 0.223
Stream size : 652 MiB (87%)
Writing library : XviD 1.2.1 (UTC 2008-12-04)
Audio #1
ID : 1
Format : MPEG Audio
Format version : Version 1
Format profile : Layer 3
Mode : Joint stereo
Codec ID : 55
Codec ID/Hint : MP3
Duration : 1h 35mn
Bit rate mode : Constant
Bit rate : 128 Kbps
Channel(s) : 2 channels
Sampling rate : 48.0 KHz
Stream size : 87.6 MiB (12%)
Alignment : Aligned on interleaves
Interleave, duration : 42 ms (1.00 video frame)
Interleave, preload durat
8a7364b212195a8ff27824bb679788ab1dfde88fЖелтый платочек счастья / The Yellow Handkerchief (Юдайан Прасад, мелодрама, драма, 2008) [DVDRip, Профессиональный (двухголосый закадровый)] Желтый платочек счастья / The Yellow Handkerchief (Юдайан Прасад, мелодрама, драма, 2008) [DVDRip, Профессиональный (двухголосый закадровый)] " />

Аплоадер: Админ, дата: 2-06-2012, 23:35, торрент скачан: 359 раз

Понравилась раздача? Посмотрите эти:
  • Хладнокровная / Cold Blooded (Джейсон Лапейр, Триллер, криминал, 2012) [WEB ...
  • Альбатрос / Albatross (Найал МакКормик, Драма, 2011) [DVDRip, Профессиональ ...
  • Игра смерти / Game of death (Роберт Клауз, Саммо Хунг Кам-Бо, Брюс Ли, боев ...
  • Любовь на кончиках пальцев / Populaire (Режис Ройнсар, Мелодрама, комедия, ...
  • Лучший стрелок / Top Gun (Тони Скотт, боевик, драма, мелодрама, 1986) [BDRi ...
  • Псы войны / The Dogs of War (Джон Ирвин, боевик, драма, приключения, военны ...
  • [EN] Команда: На пути Аллаха / Takiye: Allah yolunda (2010, Бен Вербонг, тр ...
  • Без всего / Sin ella (Джордже Колон, Мелодрама, 2010) [HDTVRip , Профессион ...
  • Акулы пера / Soloalbum (Грегор Шнитцлер, мелодрама, комедия, 2003) [BDRip, ...
  • Мой парень – псих / Silver Linings Playbook (Дэвид О. Расселл, Драма, мелод ...
  • Майский дождь (Евгений Лаврентьев, мелодрама, комедия, 2012) [DVDRip, Не тр ...
  • Воздержание / Restraint (Дэвид Денин, триллер, драма, 2008) [DVDRip, Профес ...
  • Воздержание / Restraint (Дэвид Денин, триллер, драма, 2008г.) [DVDRip, Проф ...
  • Яркая звезда / Bright Star (Джейн Кэмпион / Jane Campion) [2009, Биографиче ...
  • Неделя в NBA с В.Гомельским / НТВ+ [28.06.2011, SD, XviD, RU, SAT]
  • Неприкасаемые / Intouchables (Оливье Накаш, Эрик Толедано, Драма, 2011) [BD ...
  • Трус / Faintheart (Вито Рокко, Комедия, 2008) [BDRip, Профессиональный (дву ...
  • Романтики / The Romantics (Галт Нидерхоффер, Драма, мелодрама, комедия, 201 ...
  • Полусвет / Half Light (Крэйг Розенберг, Ужасы, триллер, драма, детектив, 20 ...
  • Мгновение любви / Here (Браден Кинг, Драма, мелодрама, приключения, 2011) [ ...
  • Глушь / Resurrection County (Matt Zettell, ужасы, триллер, 2008) [DVDRip, П ...
  • Ничего, кроме правды / Nothing But the Truth (Род Лури, триллер, драма, 200 ...
  • Робинзон Крузо / Robinson Crusoe (Род Харди, Джордж Миллер, драма, приключе ...
  • Табу / Tabu (Мигель Гомеш, Драма, мелодрама, 2012) [DVDRip, Профессиональны ...
  • Крузо / Crusoe (Калеб Дешанель, Драма, 1988) [HDTVRip, Профессиональный (дв ...
  • Информация
    Посетители, находящиеся в группе Гости, не могут оставлять комментарии к данной публикации.