вход на сайт

Имя пользователя :
Пароль :

Восстановление пароля Регистрация
Монте-Карло / Monte Carlo (Томас Безуча,Мелодрама, комедия, приключения , 2011) [DVDRip, Дублированный]
Рейтинг:
(голосов: 1)



[img]{THEME}/images/logopost.png[/img]



Монте-Карло / Monte Carlo
«Иногда, чтобы стать собой нужно побыть кем-то другим»

Год выпуска: 2011
Страна: США , Венгрия

Производство: Fox 2000 Pictures, Blossom Films, Mid Atlantic Films
Жанр: Мелодрама, комедия, приключения

Режиссёр: Томас Безуча
В ролях: Селена Гомес, Кэти Кэссиди, Лейтон Мистер, Кори Монтейт, Энди МакДауэлл, Бретт Каллен, Аманда Фейрбэнк-Хайнс, Джо Кэмп Третий, Люк Брейси, Валери Лемерсье

Перевод: Дублированный
Субтитры: Отсутствуют

Описание: Под занавес своего долгожданного, но неудавшегося путешествия в Париж три девушки от скуки заходят в пятизвездочный отель, и их жизнь совершает головокружительный поворот: одну из них принимают за избалованную англичанку, наследницу огромного состояния. И вот тыква превращается в карету, скромное платьице — в шикарный наряд, Золушка — в принцессу, а Париж — в Монте-Карло с вездесущими папарацци, частными самолетами, и незабываемой романтикой.



Доп. информация:

Премьеры ▼• премьера (мир): 30 июня 2011
• премьера (РФ): 30 июня 2011, «Двадцатый Век Фокс СНГ»
• релиз на DVD: 4 августа 2011, «Двадцатый Век Фокс СНГ»
• релиз на Blu-Ray: 17 ноября 2011, «Двадцатый Век Фокс СНГ»

Бюджет: $20 000 000
Сборы в США: $22 303 256
Сборы в России: $1 372 481
Сборы в мире: + $3 372 915 = $25 676 171

Рейтинг MPAA: ▼Рейтинг PG-13 - Детям до 13 лет просмотр не желателен

MediaInfo ▼Text
General
Format : AVI
Format/Info : Audio Video Interleave
File size : 1.47 GiB
Duration : 1h 44mn
Overall bit rate : 2 013 Kbps
Writing application : VirtualDubMod 1.5.4.1 (build 2178/release)
Writing library : VirtualDubMod build 2178/release
Video #0
ID : 0
Format : MPEG-4 Visual
Format profile : Advanced [email protected]
Format settings, BVOP : 1
Format settings, QPel : No
Format settings, GMC : No warppoints
Format settings, Matrix : Custom
Codec ID : XVID
Codec ID/Hint : XviD
Duration : 1h 44mn
Bit rate : 1 622 Kbps
Width : 720 pixels
Height : 384 pixels
Display aspect ratio : 1.875
Frame rate : 25.000 fps
Color space : YUV
Chroma subsampling : 4:2:0
Bit depth : 8 bits
Scan type : Progressive
Compression mode : Lossy
Bits/(Pixel*Frame) : 0.235
Stream size : 1.18 GiB (81%)
Writing library : XviD 1.2.1 (UTC 2008-12-04)
Audio #1
ID : 1
Format : AC-3
Format/Info : Audio Coding 3
Mode extension : CM (complete main)
Codec ID : 2000
Duration : 1h 44mn
Bit rate mode : Constant
Bit rate : 384 Kbps
Channel(s) : 6 channels
Channel positions : Front: L C R, Side: L R, LFE
Sampling rate : 48.0 KHz
Bit depth : 16 bits
Compression mode : Lossy
Stream size : 287 MiB (19%)
Alignment : Split accross interleaves
Interleave, duration : 96 ms (2.40 video frames)
Interleave, preload duration : 96 ms



Сравнение с Vovanikum
Качество: DVDRip
Продолжительность: 01:44:19 час.

Формат: AVI
Видео кодек: XviD
Аудио кодек: AC3
Видео: 720x384 (1.88:1), 25.000 fps, ~1622 kbps avg, 0.23 bit/pixel
Аудио: 48 kHz,2 ch, ~384
b0d0646ca32c44a76b4d93c79f25a30b266d085bМонте-Карло / Monte Carlo (Томас Безуча,Мелодрама, комедия, приключения , 2011) [DVDRip, Дублированный] Монте-Карло / Monte Carlo (Томас Безуча,Мелодрама, комедия, приключения , 2011) [DVDRip, Дублированный] " />

Аплоадер: Админ, дата: 3-08-2011, 19:27, торрент скачан: 359 раз

Понравилась раздача? Посмотрите эти:
  • Вирус / Flu (Ким Сон Су, Драма, 2013) [HDTVRip, Любительский (двухголосый з ...
  • Орудие смерти / A-i-deul... (Ли Гю Ман, Триллер, криминал, 2011) [DVDRip, П ...
  • Верное дельце / Une pure affaire (Александр Коффре, Боевик, Комедия, Кримин ...
  • Мои герои / Mes heros (Эрик Беснард, комедия, 2012) [HDRip, Профессиональны ...
  • Мужество / Wymyk (Грег Зглински, драма, 2011) [DVDRip, Любительский (одного ...
  • Звук моего голоса / Sound of My Voice (Зал Батманглидж, триллер, драма, 201 ...
  • Слепой поворот / Blind Turn (Роберт Орр, Триллер, драма, детектив, 2012) [W ...
  • 23:59 / 23:59 (Гилберт Чан, Ужасы, 2011) [HDRip, Любительский (одноголосый ...
  • Монте-Карло / Monte Carlo (Томас Безуча, мелодрама, комедия, приключения, 2 ...
  • МЫ. Верим в любовь / W.E. (Мадонна, Драма, мелодрама, история, 2011) [BDRip ...
  • Монте-Карло / Monte Carlo (Томас Безуча, мелодрама, комедия, приключения, 2 ...
  • Монте-Карло / Monte Carlo (Томас Безуча, мелодрама, комедия, 2011) [BDRip-A ...
  • Тюремщик / Screwed (Рег Тревисс / Reg Traviss, Драма, 2011) [DVDRip , Люби ...
  • Монте-Карло | Monte Carlo (Томас Безуча, мелодрама, комедия, приключения, 2 ...
  • Плохая актриса / Bad Actress (Роберт Ли Кинг, комедия, 2011) [DVDRip, Профе ...
  • Монте-Карло / Monte Carlo (Томас Безуча, мелодрама, комедия, приключения, 2 ...
  • Захват / Carjacked (Джон Бонито, триллер, 2011)[BDRip, Профессиональный (мн ...
  • Tank Feat. T.I. & Kris Stephens / Compliments [2012, RnB,Hip-Hop, HDRip]
  • Три богатыря на дальних берегах (Константин Феоктистов, мультфильм, комедия ...
  • Неделя в NBA с В.Гомельским / НТВ+ [28.06.2011, SD, XviD, RU, SAT]
  • Монте-Карло / Monte Carlo (Томас Безуча, Мелодрама, комедия, приключения, 2 ...
  • Влюбленные (Валерий Бебко, Комедия, 2011) [DVDRip, Оригинал]
  • Замёрзший мир / 2012: Ice Age (Трэвис Форт, фантастика, боевик, 2011) [HDRi ...
  • Супершторм в Сиэтле / Seattle Superstorm (Джейсон Бурк, фантастика, боевик ...
  • Девушки в опасности / Damsels in Distress (Уит Стиллман, драма, мелодрама, ...
  • Информация
    Посетители, находящиеся в группе Гости, не могут оставлять комментарии к данной публикации.