вход на сайт

Имя пользователя :
Пароль :

Восстановление пароля Регистрация
Материализация абонента (Роман Карасев, мелодрама, фэнтези, 2011) [HDTVRip, Оригинал]
Рейтинг:
(голосов: 1)



[img]{THEME}/images/logopost.png[/img]



Материализация абонента

Год выпуска: 2011
Страна: Россия
Производство: Любительская киностудия РАМФИЛЬМ, Москва.
Жанр: мелодрама, фэнтези

Режиссёр: Роман Карасев
В ролях:Яна Лапкина, Владислав Третьяк, Людмила Савельева, Дарья Колесникова, Анастасия Четверик, Лариса Чадаева, Александр Чубаков, Андрей Андреев

Перевод: Оригинал

Описание: Добрая, немного наивная девушка Катя, по профессии врач-кардиолог, всегда дарила людям только добро и, безусловно, она заслужила право быть счастливой, но, увы, в свои 30 она одинока. Несмотря на это она по-прежнему сохраняет в своей душе тепло, доброту и отзывчивость. Наверно именно этим объясняется неожиданное появление в её жизни загадочной дамы — доброй волшебницы. После встречи с ней жизнь Кати начинает меняться. Но как долго продлится эта сказка?

Рейтинги отсутствуют



Качество:HDTVRip
Продолжительность: 01:08:03 час.

Формат: AVI
Видео кодек:XviD
Аудио кодек: MP3
Видео: 960x544 (1.76:1), 25 fps, XviD MPEG-4 ~2659 kbps avg, 0.20 bit/pixel
Аудио: 48 kHz, MPEG Layer 3, 2 ch, ~256.00 kbps avg

Media Info: ▼
Общее
Полное имя : Materializacija.Abonenta.2011.HDTVRip.avi
Формат : AVI
Формат/Информация : Audio Video Interleave
Профиль формата : OpenDML
Настройки формата : rec
Размер файла : 1,39 Гбайт
Продолжительность : 1 ч. 8 м.
Общий поток : 2923 Кбит/сек
Программа кодирования : AVI-Mux GUI 1.17.8.3, Feb 16 201019:42:50

Видео
Идентификатор : 0
Формат : MPEG-4 Visual
Профиль формата : Advanced [email protected]
Параметр BVOP формата : 1
Параметр QPel формата : Нет
Параметр GMC формата : Без точки перехода
Параметр матрицы формата : Default (H.263)
Режим смешивания : Сжатый битовый поток
Идентификатор кодека : XVID
Идентификатор кодека/Подсказка : XviD
Продолжительность : 1 ч. 8 м.
Битрейт : 2658 Кбит/сек
Ширина : 960 пикс.
Высота : 544 пикс.
Соотношение сторон : 16:9
Частота кадров : 25,000 кадр/сек
Цветовое пространство : YUV
Подвыборка цветности : 4:2:0
Битовая глубина : 8 бит
Тип развёртки : Прогрессивная
Метод сжатия : С потерями
Бит/(Пиксели*Кадры) : 0.204
Размер потока : 1,26 Гбайт (91%)
Библиотека кодирования : XviD 1.2.1 (UTC 2008-12-04)

Аудио
Идентификатор : 1
Формат : MPEG Audio
Версия формата : Version 1
Профиль формата : Layer 3
Идентификатор кодека : 55
Идентификатор кодека/Подсказка : MP3
Продолжительность : 1 ч. 8 м.
Вид битрейта : Постоянный
Битрейт : 256 Кбит/сек
Канал(ы) : 2 канала(ов)
Частота : 48,0 КГц
Метод сжатия : С потерями
Размер потока : 125 Мбайт (9%)
Выравнивание : Соединение по промежуткам
Продолжительность промежутка : 24 мс. (0,60 видеокадр)
Время предзагрузки промежутка : 192 ms
Заголовок : F2_v4_mod




c120ac8fde5d6965043865b8661b29b82ee0edf8Материализация абонента (Роман Карасев, мелодрама, фэнтези, 2011) [HDTVRip, Оригинал] Материализация абонента (Роман Карасев, мелодрама, фэнтези, 2011) [HDTVRip, Оригинал] " />

Аплоадер: Админ, дата: 21-02-2011, 10:38, торрент скачан: 359 раз

Понравилась раздача? Посмотрите эти:
  • Оборотень в погонах (Александр Будённый, детектив, криминальный фильм, 2012 ...
  • Злые птицы: Хэллоуин / Angry Birds: HamOWeen (Джей Ройвайнен, Мультфильм, к ...
  • Sepultura / Attitude [1996, Death Metal, WebRip]
  • Вечерний Ургант // Сезон 2. Выпуск 56 (ТВ-шоу, 11.12.2012) [SATRip, Не треб ...
  • Бог любви / God of Love (Люк Мэзени, Короткометражка, фэнтези, комедия, мел ...
  • Любовь по расписанию / Поезд (Сергей Мезенцев, мелодрама, 2012) [HDTVRip, Н ...
  • Вечерний Ургант // Сезон 2. Выпуск 62 (ТВ-шоу, 19.12.2012) [SATRip, Не треб ...
  • Вечерний Ургант // Сезон 2. Выпуск 63 (ТВ-шоу, 20.12.2012) [SATRip, Не треб ...
  • Кейси Джонс / Casey Jones (Иларион Бэнкс, Короткометражка, фэнтези, боевик, ...
  • Заместитель / Il supplente (Андреа Жублин, Короткометражка, комедия, 2007) ...
  • Вечерний Ургант // Сезон 2. Выпуск 64 (ТВ-шоу, 21.12.2012) [SATRip, Не треб ...
  • Вечерний Ургант // Сезон 2. Выпуск 66 (ТВ-шоу, 25.12.2012) [SATRip, Не треб ...
  • Вечерний Ургант // Сезон 2. Выпуск 68 (ТВ-шоу, 27.12.2012) [SATRip, Не треб ...
  • Дорога на... / Road to (Таисия Игуменцева, Комедия, короткометражный, 2011) ...
  • Покорить высоту / Take It to the Limit (Сэм Кит / Sam Kieth, семейный, 2000 ...
  • Светлячок. Воссоединение Коричневых плащей к 10 годовщине / Firefly 10th An ...
  • Детский душ / Baby Shower (Pablo Illanes, Ужасы, 2011) [DVDRip, Любительски ...
  • Привет, Джули! / Flipped (Роб Райнер, драма, мелодрама, комедия , 2010) [HD ...
  • Храбрые Перцем / Your Highness (Дэвид Гордон Грин, фэнтези, 2011) [BDRip, Д ...
  • В лесу / The Forest (Шан Серафин, ужасы, триллер , 2011) [SATRip, Профессио ...
  • Челюсти 3D / Shark Night 3D (Дэвид Р. Эллис, ужасы, триллер, 2011) [HDRip, ...
  • Развод по-русски. Выпуск №78. Трагедии звездных семей (Документальный,телеп ...
  • Schiller / Mitternacht [2010, Ambient, WebRip]
  • Бюро находок : Потерянный и найденный / Lost and Found (Филип Хант, коротко ...
  • Сдохни, Джон Такер / John Tucker Must Die (Бетти Томас, мелодрама, комедия, ...
  • Информация
    Посетители, находящиеся в группе Гости, не могут оставлять комментарии к данной публикации.