вход на сайт

Имя пользователя :
Пароль :

Восстановление пароля Регистрация
Человек без головы / Lhomme sans tête (Хуан Диего Соланас, Короткометражка, фэнтези, мелодрама, 2003) [DVDRip, Оригинал]
Рейтинг:
(голосов: 1)



[img]{THEME}/images/logopost.png[/img]



Человек без головы / Lhomme sans tête

Человек собрался на бал

Год выпуска: 2003
Страна: Франция Аргентина
Производство:
Жанр: Короткометражка, фэнтези, мелодрама

Режиссёр: Хуан Диего Соланас
В ролях: Лорен Берт, Патрик Бетюн, Кристоф Ботти и другие

Перевод: Оригинал (Французский)
Субтитры:Русские [полные, soft]

Описание
Человек собрался на бал. Он надел смокинг и разучил движения. Ему не хватает самой малости — головы. Он идет в специальный магазин, где продают то, что нужно. Здесь можно подобрать голову по цвету волос или размаху ушей, но никто никогда не поможет найти недостающую часть собственной личности…
Лучший короткометражный фильм Сезар, 2004 год
Приз жюри за короткометражный фильм Каннский кинофестиваль, 2003 год

Доп. информация
Премьеры ▼премьера (мир) 23 мая 2003

Mediainfo ▼TextОбщее
Полное имя : F:Chelovek_bez_golovy_2003Chelovek.bez.golovy.(LHomme.Sans.Tete.Frantsija-Argentina.2003).avi
Формат : AVI
Формат/Информация : Audio Video Interleave
Размер файла : 300 Мбайт
Продолжительность : 17 м.
Общий поток : 2355 Кбит/сек

Видео
Идентификатор : 0
Формат : MPEG-4 Visual
Параметр BVOP формата : 1
Параметр QPel формата : Нет
Параметр GMC формата : Без точки перехода
Параметр матрицы формата : Default (H.263)
Режим смешивания : Сжатый битовый поток
Идентификатор кодека : DX50
Идентификатор кодека/Подсказка : DivX 5
Продолжительность : 17 м.
Битрейт : 2154 Кбит/сек
Ширина : 720 пикселей
Высота : 304 пикселя
Соотношение сторон : 2,35:1
Частота кадров : 25,000 кадров/сек
Цветовое пространство : YUV
Субдискретизация насыщенности : 4:2:0
Битовая глубина : 8 бит
Тип развёртки : Прогрессивная
Метод сжатия : С потерями
Бит/(Пиксели*Кадры) : 0.394
Размер потока : 274 Мбайт (91%)
Заголовок : Video
Библиотека кодирования : DivX 5.2.1 Alpha (UTC 2004-09-08)

Аудио
Идентификатор : 1
Формат : AC-3
Формат/Информация : Audio Coding 3
Расширение режима : CM (complete main)
Параметр Endianness формата : Big
Идентификатор кодека : 2000
Продолжительность : 17 м.
Вид битрейта : Постоянный
Битрейт : 192 Кбит/сек
Каналы : 2 канала
Расположение каналов : Front: L R
Частота : 48,0 КГц
Битовая глубина : 16 бит
Метод сжатия : С потерями
Размер потока : 24,4 Мбайт (8%)
Выравнивание : Разделение по промежуткам
Продолжительность промежутка : 40 мс. (1,00 видеокадр)
Время предзагрузки промежутка : 500 мс.
Заголовок : Audio

[/ code]

Тех. данные
Качество: DVDRip
Продолжительность: 00:17:46 час.

Формат: AVI
Видео кодек: DivX
Аудио кодек: AC3
Видео: 720x304 (2.37:1), 25 fps, DivX Codec 5.2.1 alpha ~2153 kbps avg, 0.39 bit/pixel
Аудио: 48 kHz, AC3 Dolby Digital, 2/0 (L,R) ch, ~192.00 kbps avg


|Cтол заказов| Наши раздачи| Набор в группу| Сказать спасибо|


d028d6e06613c746b7b0480f1c4e2817ce2790eeЧеловек без головы / Lhomme sans tête (Хуан Диего Соланас, Короткометражка, фэнтези, мелодрама, 2003) [DVDRip, Оригинал] Человек без головы / Lhomme sans tête (Хуан Диего Соланас, Короткометражка, фэнтези, мелодрама, 2003) [DVDRip, Оригинал] " />

Аплоадер: Админ, дата: 1-01-2013, 18:48, торрент скачан: 359 раз

Понравилась раздача? Посмотрите эти:
  • Бойфренд из будущего / About Time (Ричард Кёртис, Фантастика, драма, комеди ...
  • Одноклассники 2 / Grown Ups 2 (Деннис Дуган, Комедия, 2013) [BDRip, Професс ...
  • Миллион для чайников / The Brass Teapot (Рамаа Мосли, Фэнтези, триллер, ком ...
  • Даю год / I Give It a Year (Дэн Мазер, Мелодрама, комедия, 2013) [DVDRip, Д ...
  • Приключения Икабода и Мистера Тоада / The Adventures Of Ichabod And Mr. Toa ...
  • Легенда о МорДу / The Legend of MorDu (Брайан Ларсен, Короткометражный, ска ...
  • Злые птицы: Хэллоуин / Angry Birds: HamOWeen (Джей Ройвайнен, Мультфильм, к ...
  • Путешествие на дно моря / Voyage to the Bottom of the Sea (Ирвин Аллен / I ...
  • Кажется, я люблю свою жену / I Think I Love My Wife (Крис Рок, Драма, мелод ...
  • Вечерний Ургант // Сезон 2. Выпуск 56 (ТВ-шоу, 11.12.2012) [SATRip, Не треб ...
  • Бог любви / God of Love (Люк Мэзени, Короткометражка, фэнтези, комедия, мел ...
  • Вечерний Ургант // Сезон 2. Выпуск 62 (ТВ-шоу, 19.12.2012) [SATRip, Не треб ...
  • Кейси Джонс / Casey Jones (Иларион Бэнкс, Короткометражка, фэнтези, боевик, ...
  • Заместитель / Il supplente (Андреа Жублин, Короткометражка, комедия, 2007) ...
  • Вечерний Ургант // Сезон 2. Выпуск 64 (ТВ-шоу, 21.12.2012) [SATRip, Не треб ...
  • Вечерний Ургант // Сезон 2. Выпуск 68 (ТВ-шоу, 27.12.2012) [SATRip, Не треб ...
  • Дорога на... / Road to (Таисия Игуменцева, Комедия, короткометражный, 2011) ...
  • Боец из трущоб / Gutter King (Кейт Алан Моррис / Keith Alan Morris, боевик, ...
  • Кошмар / Nightmare / Qing Yan (Херман Яу, ужасы, триллер, 2012) [DVDRip, Лю ...
  • Pitbull / Bon Bon [2010, Pop, HDRip]
  • Гениальный папа / Father of Invention (Трент Купер, Драма, комедия, 2010) [ ...
  • Глаз шторма / The Eye of the Storm (Фред Скеписи, Драма, 2011) [HDRip, Проф ...
  • Бюро находок : Потерянный и найденный / Lost and Found (Филип Хант, коротко ...
  • Человек из банки (Иван Кульнев, Комедия, 2012) [DVDRip, Не требуется]
  • Сдохни, Джон Такер / John Tucker Must Die (Бетти Томас, мелодрама, комедия, ...
  • Информация
    Посетители, находящиеся в группе Гости, не могут оставлять комментарии к данной публикации.