вход на сайт

Имя пользователя :
Пароль :

Восстановление пароля Регистрация
[ENG] Крутые кексы / High School (Джон Сталберг, комедия, 2010) [BDRip 720p Оригинал (английский) + Коментарии + (Sub)]
Рейтинг:
(голосов: 1)



[img]{THEME}/images/logopost.png[/img]



Крутые кексы / High School

Год выпуска: 2010
Страна: США
Производство: США
Жанр: комедия

Режиссёр:Джон Сталберг
В ролях: Мэтт Буш, Шон Маркетт, Эдриан Броуди, Майкл Чиклис, Колин Хэнкс, Майкелти Уильямсон, Майкл Вартан, Кертис Армстронг

Перевод: Оригинал (английский)
Субтитры: Sub [Rus, Eng, Esp] (Авторские, Владимир Грязнов)

Описание: Выпускник-отличник первый раз в жизни курит марихуану, не зная, что директор школы решил проверить всех учеников на наркотики. Когда парень оказывается перед необходимостью сдать анализы на наличие психотропных препаратов в организме, он решает накачать этими препаратами всех своих однокашников, чтобы не слишком выделяться на их фоне.



Сэмпл

Качество: BDRip 720p
Продолжительность: 1:39:33

Формат: MKV
Видео кодек: H.264
Аудио кодек: AC3
Видео:1280x534 (2.40:1), 23.976 fps, Advanced Video Codec , ~ 5 236 kbps avg, 0.276 bit/pixel.
Аудио 1: 48 kHz, AC3 Dolby Digital, 6 ch, ~640 kbps - Original
Аудио 2: 48 kHz, AC3 Dolby Digital, 2 ch, ~192 kbps - Комментарии

"MediaInfo" ▼General
Unique ID : 191102927364301018375773259241592067239 (0x8FC515C455F7455A9991C46CB61E14A7)
Complete name : C:High.School.2010.720p.BDRip-AVC.x264.mkv
Format : Matroska
Format version : Version 2
File size : 4.31 GiB
Duration : 1h 39mn
Overall bit rate : 6 191 Kbps
Encoded date : UTC 2012-10-10 14:04:58
Writing application : mkvmerge v5.7.0 (The Whirlwind) built on Jul 29 2012 15:12:35
Writing library : libebml v1.2.3 + libmatroska v1.3.0

Video
ID : 1
Format : AVC
Format/Info : Advanced Video Codec
Format profile : [email protected]
Format settings, CABAC : Yes
Format settings, ReFrames : 11 frames
Codec ID : V_MPEG4/ISO/AVC
Bit rate : 5 236 Kbps
Width : 1 280 pixels
Height : 534 pixels
Display aspect ratio : 2.40:1
Frame rate mode : Variable
Original frame rate : 23.976 fps
Color space : YUV
Chroma subsampling : 4:2:0
Bit depth : 8 bits
Scan type : Progressive
Bits/(Pixel*Frame) : 0.276
Title : EbP
Writing library : x264 core 125 r2208 d9d2288
Encoding settings : cabac=1 / ref=11 / deblock=1:-3:-3 / analyse=0x3:0x113 / me=tesa / subme=9 / psy=1 / psy_rd=1.00:0.00 / mixed_ref=1 / me_range=16 / chroma_me=1 / trellis=2 / 8x8dct=1 / cqm=0 / deadzone=21,11 / fast_pskip=0 / chroma_qp_offset=-2 / threads=12 / lookahead_threads=2 / sliced_threads=0 / nr=0 / decimate=0 / interlaced=0 / bluray_compat=0 / constrained_intra=0 / bframes=8 / b_pyramid=2 / b_adapt=2 / b_bias=0 / direct=3 / weightb=1 / open_gop=0 / weightp=2 / keyint=250 / keyint_min=23 / scenecut=40 / intra_refresh=0 / rc=crf / mbtree=0 / crf=17.0 / qcomp=0.60 / qpmin=0 / qpmax=69 / qpstep=4 / ip_ratio=1.40 / pb_ratio=1.30 / aq=1:0.70
Language : English
Default : Yes
Forced : No
Matrix coefficients : BT.709

Audio #1
ID : 2
Format : AC-3
Format/Info : Audio Coding 3
Mode extension : CM (complete main)
Format settings, Endianness : Big
Codec ID : A_AC3
Duration : 1h 39mn
Bit rate mode : Constant
Bit rate : 640 Kbps
Channel(s) : 6 channels
Channel positions : Front: L C R, Side: L R, LFE
Sampling rate : 48.0 KHz
Bit depth : 16 bits
Compression mode : Lossy
Stream size : 456 MiB (10%)
Title : AC3 5.1 @ 640Kbps
Language : English
Default : Yes
Forced : No

Audio #2
ID : 3
Format : AC-3
Format/Info : Audio Coding 3
Mode extension : CM (complete main)
Format settings, Endianness : Big
Codec ID : A_AC3
Duration : 1h 39mn
Bit rate mode : Constant
Bit rate : 192 Kbps
Channel(s) : 2 channels
Channel positions : Front: L R
Sampling rate : 48.0 KHz
Bit depth : 16 bits
Compression mode : Lossy
Stream size : 137 MiB (3%)
Title : Commentary 2.0 @ 192Kbps
Language : English
Default : No
Forced : No

Text #1
ID : 4
Format : UTF-8
Codec ID : S_TEXT/UTF8
Codec ID/Info : UTF-8 Plain Text
Title : Russian
Language : Russian
Default : Yes
Forced : No

Text #2
ID : 5
Format : UTF-8
Codec ID :
9780163278bd4c6e68cd4e35ef3ddb5742859a5f[ENG] Крутые кексы / High School (Джон Сталберг, комедия, 2010) [BDRip 720p Оригинал (английский) + Коментарии + (Sub)] [ENG] Крутые кексы / High School (Джон Сталберг, комедия, 2010) [BDRip 720p Оригинал (английский) + Коментарии + (Sub)] " />

Аплоадер: Админ, дата: 20-10-2012, 16:40, торрент скачан: 359 раз

Понравилась раздача? Посмотрите эти:
  • Два ствола / 2 Guns (Бальтасар Кормакур, боевик, триллер, драма, комедия, к ...
  • Погнали! / Getaway (Кортни Соломон, боевик, криминал, 2013) [BDRip 720p, Пр ...
  • Посылка / The Package (Джесси Джонсон, боевик, 2013) [BDRip 720p, Профессио ...
  • 42 / 42 (Брайан Хелгеленд, Драма, биография, спорт, 2013) [BDRip 720p, Проф ...
  • Жизнь Пи / Life Of Pi (Энг Ли, Драма, приключения, 2012) [BDRip 720p, Профе ...
  • Экипаж / Flight (Роберт Земекис, Драма, 2012) [BDRip-AVC, Профессиональный ...
  • Суррогат / The Sessions (Бен Луин, драма, 2012) [BDRip 720p, Профессиональн ...
  • Весенние надежды / Hope Springs (Дэвид Фрэнкел, Драма, мелодрама, комедия, ...
  • Толстяк на ринге / Here Comes the Boom (Фрэнк Корачи, Боевик, комедия, 201 ...
  • Зубная фея 2 / Tooth Fairy 2 (Алекс Замм, комедия, семейный, 2012) [BDRip 7 ...
  • Чаббчаббы спасают Рождество / The Chubbchubbs Save Xmas (Коуди Камерон, мул ...
  • Похищенная / A Lonely Place to Die (Джулиан Джилби, триллер, криминал, прик ...
  • Проект X: Дорвались / Project X (Нима Нуризаде, комедия, 2012) [BDRip 720p, ...
  • Мачо и ботан / 21 Jump Street (Фил Лорд, Крис Миллер, боевик, комедия, 2012 ...
  • «Весёлые» каникулы / Get the Gringo (Адриан Грюнберг, Боевик, комедия, 2012 ...
  • Ворон / The Raven (Джеймс МакТиг, Триллер, детектив, 2012) [BDRip 720p, Дуб ...
  • Пираньи 3DD / Piranha 3DD (Джон Гулажер, ужасы, триллер, комедия, 2012) [BD ...
  • Супер Майк / Magic Mike (Стивен Содерберг, Драма, комедия, 2012) [BDRip 720 ...
  • Mylene Farmer / Du Temps [2011, Pop, HDTVRip]
  • Mylene Farmer / Bleu Noir [2011, Pop, HDTVRip]
  • Информация
    Посетители, находящиеся в группе Гости, не могут оставлять комментарии к данной публикации.