вход на сайт

Имя пользователя :
Пароль :

Восстановление пароля Регистрация
[EN] Процесс / The Trial (Орсон Уэллс, фэнтези, триллер, драма, криминал, детектив, 1962) [DVDRip, Оригинал (Английский), Субтитры: Rus.]
Рейтинг:
(голосов: 1)



[img]{THEME}/images/logopost.png[/img]



Процесс / The Trial

Год выпуска: 1962
Страна: Франция, Италия,Германия
Производство: F.I.C.I.T, Hisa-Film, Paris-Europa Productions
Жанр: фэнтези, триллер, драма, криминал, детектив

Режиссёр: Орсон Уэллс
В ролях: Энтони Перкинс, Жанна Моро, Роми Шнайдер, Орсон Уэллс, Аким Тамирофф

Перевод: Оригинал (Английский)
Субтитры: Русские (отдельно)

Описание:
Рядовой клерк Йозеф К. обвиняется в некоем преступлении, которое он не совершал, поскольку не совершал вообще ничего противозаконного. Собственно, состав преступления ему не называют и сами обвинители, поскольку так же не знают, в чём он виноват…


Дополнительно:
Знаете ли вы, что... ▼
Сцена в офисе К. снималась на вокзале Пари ДОрсэ.

MediaInfo ▼Text
Общее
Полное имя :J:Кинокопилка.РуРАЗДАЧАПроцессThe TrialFranz Kafka.The Trial.avi
Формат :AVI
Размер :1.36 GiB
Продолжительность :01:59:40.176
Общий поток :1 629 Kbps
Программа кодирования :VirtualDubMod 1.5.10.1 (build 2439/release)
Библиотека кодирования :VirtualDubMod build 2439/release

Видео
Идентификатор :0
Формат :MPEG-4 Visual
Параметр BVOP формата :2
Параметр Qpel формата :No
Параметр GMC формата :2
Параметр Matrix формата :Default (MPEG)
Идентификатор кодека :DX50
Продолжительность :1h 59mn 40s 173ms
Битрейт :1 555 Kbps
Ширина :624 pixels
Высота :384 pixels
Соотношение сторон :1.625
Частота кадров :23.976 fps
Глубина цвета :8 bits
Подвыборка цветности :4:2:0
Цветовое пространство :YUV
Тип развертки :Progressive
Бит/(Пиксели*Кадры) :0.271
Размер потока :1.30 GiB (95%)
Библиотека кодирования :DivX503b1314m

Аудио #1
Идентификатор :1
Формат :MPEG Audio
Идентификатор кодека :55
Продолжительность :01:59:40.176
Вид битрейта :Constant
Битрейт :64.0 Kbps
Канал(ы) :2 channels
Частота :24.0 KHz
Метод сжатия :Lossy
Размер потока :54.8 MiB (4%)Тех. данные:
Качество:DVDRip
Продолжительность:01:59:46 час

Формат: AVI
Видео кодек: DivX
Аудио к
6f146462803d307349fefde6db451162c2857c32[EN] Процесс / The Trial (Орсон Уэллс, фэнтези, триллер, драма, криминал, детектив, 1962) [DVDRip, Оригинал (Английский), Субтитры: Rus.] [EN] Процесс / The Trial (Орсон Уэллс, фэнтези, триллер, драма, криминал, детектив, 1962) [DVDRip, Оригинал (Английский), Субтитры: Rus.] " />

Аплоадер: Админ, дата: 2-05-2012, 07:29, торрент скачан: 359 раз

Понравилась раздача? Посмотрите эти:
  • Воздыхатель / Le soupirant (Пьер Этекс, комедия, 1962) [DVDRip, Профессиона ...
  • Завещание доктора Мабузе / Das Testament des Dr. Mabuse (Фриц Ланг, ужасы, ...
  • Доктор Мабузе, игрок / Dr. Mabuse, der Spieler - Ein Bild der Zeit (2 части ...
  • Дом, который построил Свифт (2 части из 2) (Марк Захаров, фэнтези, триллер, ...
  • Мистер Аркадин / Mr. Arkadin (Орсон Уэллс, триллер, драма, криминал, детект ...
  • Процесс Жанны Д Арк / Proces de Jeanne dArc (Робер Брессон, драма, военный, ...
  • Печать зла / Touch of Evil (Орсон Уэллс, фильм-нуар, триллер, криминал, 195 ...
  • Преждевременное погребение / Premature Burial (Роджер Корман, ужасы, драма, ...
  • Я и Орсон Уэллс / Me and Orson Welles (Ричард Линклейтер, Драма, 2008) [DVD ...
  • Гражданин Кейн / Citizen Kane (Орсон Уэллс, драма, детектив, 1941) [HDRip, ...
  • Свидетель обвинения / Witness for the Prosecution (Билли Уайлдер, триллер, ...
  • Аустерлиц / Austerlitz (Абель Ганс, драма, история, 1960) [DVDRip, Професси ...
  • Леди из Шанхая / The Lady from Shanghai (Орсон Уэллс, фильм-нуар, триллер, ...
  • Отелло / The Tragedy of Othello: The Moor of Venice (Орсон Уэллс, драма, ме ...
  • Оскорбление / The Offence (Сидни Люмет, триллер, драма, криминал, 1972) [DV ...
  • Плохие спят спокойно / Warui yatsu hodo yoku nemuru (Акира Куросава, трилле ...
  • Битва за Рим (Битва за Рим 2) / Kampf um Rom I (Kampf um Rom II - Der Verra ...
  • Долгая Страстная пятница / The Long Good Friday (Джон Маккензи, триллер, др ...
  • Харакири / Seppuku (Масаки Кобаяси, драма, 1962) [DVDRip, Профессиональный ...
  • Чужестранец / The Stranger (Орсон Уэллс, фильм-нуар, триллер, драма, кримин ...
  • Информация
    Посетители, находящиеся в группе Гости, не могут оставлять комментарии к данной публикации.