вход на сайт

Имя пользователя :
Пароль :

Восстановление пароля Регистрация
[EN] Команда: На пути Аллаха / Takiye: Allah yolunda (2010, Бен Вербонг, триллер, драма) [DVDRip, ENG subtitles, оригинал]
Рейтинг:
(голосов: 1)



[img]{THEME}/images/logopost.png[/img]



Команда: На пути Аллаха / Takiye: Allah yolunda

Год выпуска: 2010
Страна: Германия, Турция
Производство: Filmfabrik, Westdeutscher Rundfunk (WDR)
Жанр: триллер, драма

Режиссёр: Бен Вербонг
В ролях: Нуман Акар, Сюзен Анбе, Руткай Азиз, Жан Никлас Берг, Эрхан Эмре, Стипе Эрчег, Фахрийе Эвджен, Эркан Жундюз, Али Сурмели и т.д.

Перевод: оригинал
Субтитры: English

Описание: Отсутствует в сети

IMDB: рейтинг 5.10 (128)
КиноПоиск: рейтинг 7.500 (2)

Качество: DVDRip
Продолжительность: 01.32.59

Формат: AVI
Видео кодек: XVID MPEG-4
Аудио кодек: MP3
Видео: 640x272 (2.35:1), 25 fps, XviD MPEG-4 ~910 kbps avg, 0.209 bit/pixel
Аудио: 48 kHz, MP3 MPEG AUDIO, 2 channels, ~128.00 kbps avg

Media Info:

General
Format : AVI
Format/Info : Audio Video Interleave
File size : 699 MiB
Duration : 1h 32mn
Overall bit rate : 1 051 Kbps
Writing application : VirtualDubMod 1.5.10.2 (build 2542/release)
Writing library : VirtualDubMod build 2542/release
Video
Format : MPEG-4 Visual
Format profile : Streaming [email protected]
Format settings, BVOP : Yes
Format settings, QPel : No
Format settings, GMC : No warppoints
Format settings, Matrix : Default (MPEG)
Muxing mode : Packed bitstream
Codec ID : XVID
Codec ID/Hint : XviD
Duration : 1h 32mn
Bit rate : 910 Kbps
Width : 640 pixels
Height : 272 pixels
Display aspect ratio : 2.35
Frame rate : 25.000 fps
Resolution : 24 bits
Colorimetry : 4:2:0
Scan type : Progressive
Bits/(Pixel*Frame) : 0.209
Stream size : 605 MiB (87%)
Writing library : XviD 1.2.1 (UTC 2008-12-04)
Audio
Format : MPEG Audio
Format version : Version 1
Format profile : Layer 3
Codec ID : 55
Codec ID/Hint : MP3
Duration : 1h 32mn
Bit rate mode : Variable
Bit rate : 128 Kbps
Nominal bit rate : 126 Kbps
Channel(s) : 2 channels
Sampling rate : 48.0 KHz
Resolution : 16 bits
Stream size : 85.2 MiB (12%)
Alignment : Aligned on interleaves
Interleave, duration : 24 ms (0.60 video frame)
Interleave, preload duration : 344 ms
Writing library : LAME3.90.
Encoding settings : -m j -V 4 -q 2 -lowpass 17.6 --abr 126


a01780908f378159cee00aad672ca783e9c75751[EN] Команда: На пути Аллаха / Takiye: Allah yolunda (2010, Бен Вербонг, триллер, драма) [DVDRip, ENG subtitles, оригинал] [EN] Команда: На пути Аллаха / Takiye: Allah yolunda (2010, Бен Вербонг, триллер, драма) [DVDRip, ENG subtitles, оригинал] " />

Аплоадер: Админ, дата: 25-12-2010, 18:44, торрент скачан: 359 раз

Понравилась раздача? Посмотрите эти:
  • Погнали! / Getaway (Кортни Соломон, Боевик,Криминал, 2013) [HDRip, Професси ...
  • Мэрайа Мунди и шкатулка Мидаса / The Adventurer: The Curse of the Midas Box ...
  • Мужество / Wymyk (Грег Зглински, драма, 2011) [DVDRip, Любительский (одного ...
  • Решала (Роман Асхаев, Драма,Криминал, 2012) [WEB-DLRip, Не требуется]
  • Берлинское дело / The Berlin File (Рю Сын Ван, Боевик, триллер, драма, 2013 ...
  • Колония / The Colony (Джефф Ренфро, фантастика, боевик, триллер, 2013) [DVD ...
  • Игра смерти / Game of death (Роберт Клауз, Саммо Хунг Кам-Бо, Брюс Ли, боев ...
  • Ариэти из страны лилипутов / Karigurashi no Arrietty / The Secret World of ...
  • Псы войны / The Dogs of War (Джон Ирвин, боевик, драма, приключения, военны ...
  • Новые парни турбо / New Kids Turbo (Штефен Хаарс, Боевик, комедия, 2010) [H ...
  • Без всего / Sin ella (Джордже Колон, Мелодрама, 2010) [HDTVRip , Профессион ...
  • Чемпионат Европы 2012 / Группа D / 1-й тур / Украина - Швеция / Спорт 1 [11 ...
  • Последняя сказка Риты (Рената Литвинова, Фентези, драма, детектив, 2012) [D ...
  • Воздержание / Restraint (Дэвид Денин, триллер, драма, 2008г.) [DVDRip, Проф ...
  • Мифы и легенды: Новый альянс / Mitos y Leyendas La Nueva Alianza (Josй Luis ...
  • Неделя в NBA с В.Гомельским / НТВ+ [28.06.2011, SD, XviD, RU, SAT]
  • Повторяющие / Repeaters (режиссёр, фантастика, триллер, драма, 2010) [DVDRi ...
  • Военные игры / War Games: At the End of the Day(Козимо Алема, Триллер, Ужас ...
  • Романтики / The Romantics (Галт Нидерхоффер, Драма, мелодрама, комедия, 201 ...
  • Чемпионат Европы 2012 / Группа B / 1-й тур / Германия - Португалия / Спорт ...
  • Товарищеский матч 2012 / АмаЗулу (ЮАР) - Манчестер Юнайтед (Англия) / MU TV ...
  • Глушь / Resurrection County (Matt Zettell, ужасы, триллер, 2008) [DVDRip, П ...
  • Искажение / Skew (Сейв Челенз, ужасы, триллер, 2011) [HDRip, Профессиональн ...
  • Ничего, кроме правды / Nothing But the Truth (Род Лури, триллер, драма, 200 ...
  • Робинзон Крузо / Robinson Crusoe (Род Харди, Джордж Миллер, драма, приключе ...
  • Информация
    Посетители, находящиеся в группе Гости, не могут оставлять комментарии к данной публикации.