вход на сайт

Имя пользователя :
Пароль :

Восстановление пароля Регистрация
[EN] Цирк дю Солей: Сказочный мир / Cirque du Soleil: Worlds Away (Эндрю Адамсон, Фэнтези, 2012) [HDRip, Оригинал (английский)]
Рейтинг:
(голосов: 1)



[img]{THEME}/images/logopost.png[/img]



• Цирк дю Солей: Сказочный мир / Cirque du Soleil: Worlds Away •
-

Год выпуска: 2012
Страна: США
Производство: Reel FX Creative Studios
Жанр: Фэнтези

Режиссёр: Эндрю Адамсон
В ролях: Эрика Линц, Игорь Зарипов, Лутс Халбхюбнер, Джон Кларк, Даллас Барнетт, Таня Дрюери, Сара Хуболт, Аскья Мэйбери, Дэмиен Гордон, Зэк Бриклэнд

Перевод: Не требуется
Оригинальная аудиодорожка: английский
Субтитры: Нет

Описание: Удивительная история двух влюбленных, которых разлучила судьба, по мотивам лучших шоу Cirque du Soleil. Им придется пройти через многое, чтобы снова быть вместе…Дата премьеры (мир): 20 октября 2012
Дата премьеры (РФ): 27 декабря 2012, «Централ Партнершип»

Качество: HDRip |Сэмпл
Продолжительность: 01:31:22


Формат: AVI
Видео кодек: XviD
Аудио кодек: AC3
Видео: 720x400 (16:9), 23.976 fps, XviD ~1826kbps avg, 0.264 bit/pixel
Аудио: 48 kHz, AC3 Dolby Digital, 3/2 (L,C,R,l,r) + LFE ch, ~448.00 kbps avg


MediaInfo ▼TextGeneral
Format : AVI
Format/Info : Audio Video Interleave
File size : 1.45 GiB
Duration : 1h 31mn
Overall bit rate : 2 283 Kbps
Writing application : VirtualDubModRus 1.5.10.2 (build 2542/release)
Writing library : VirtualDubMod build 2542/release
Video #0
ID : 0
Format : MPEG-4 Visual
Format profile : Advanced [email protected]
Format settings, BVOP : Yes
Format settings, QPel : No
Format settings, GMC : No warppoints
Format settings, Matrix : Custom
Codec ID : XVID
Codec ID/Hint : XviD
Duration : 1h 31mn
Bit rate : 1 826 Kbps
Width : 720 pixels
Height : 400 pixels
Display aspect ratio : 16:9
Frame rate : 23.976 fps
Color space : YUV
Chroma subsampling : 4:2:0
Bit depth : 8 bits
Scan type : Progressive
Compression mode : Lossy
Bits/(Pixel*Frame) : 0.264
Stream size : 1.16 GiB (80%)
Writing library : XviD 1.2.1 (UTC 2008-12-04)
Audio #1
ID : 1
Format : AC-3
Format/Info : Audio Coding 3
Mode extension : CM (complete main)
Codec ID : 2000
Duration : 1h 31mn
Bit rate mode : Constant
Bit rate : 448 Kbps
Channel(s) : 6 channels
Channel positions : Front: L C R, Side: L R, LFE
Sampling rate : 48.0 KHz
Bit depth : 16 bits
Compression mode : Lossy
Stream size : 292 MiB (20%)
Alignment : Split accross interleaves
Interleave, duration : 42 ms (1.00 video frame)
Interleave, preload duration : 500 ms


Релиз Группы "Virtus"

Стол заказов / Вступление в РГ / Благодарности, критика и другое


ec92eb728d20e3d1d860c622b814c31e611b7a22[EN] Цирк дю Солей: Сказочный мир / Cirque du Soleil: Worlds Away (Эндрю Адамсон, Фэнтези, 2012) [HDRip, Оригинал (английский)] [EN] Цирк дю Солей: Сказочный мир / Cirque du Soleil: Worlds Away (Эндрю Адамсон, Фэнтези, 2012) [HDRip, Оригинал (английский)] " />

Аплоадер: Админ, дата: 4-03-2013, 18:43, торрент скачан: 359 раз

Понравилась раздача? Посмотрите эти:
  • Мои герои / Mes heros (Эрик Беснард, комедия, 2012) [HDRip, Профессиональны ...
  • Мужество / Wymyk (Грег Зглински, драма, 2011) [DVDRip, Любительский (одного ...
  • Неудержимый / Bullet to the Head (Уолтер Хилл, Боевик, триллер, криминал, 2 ...
  • Поймай толстуху, если сможешь [Театральная версия] / Identity Thief [Theatr ...
  • [3D] Cirque du Soleil: Сказочный мир в 3D / Cirque du Soleil: Worlds Away 3 ...
  • Звук моего голоса / Sound of My Voice (Зал Батманглидж, триллер, драма, 201 ...
  • 23:59 / 23:59 (Гилберт Чан, Ужасы, 2011) [HDRip, Любительский (одноголосый ...
  • Цирк дю Солей: Сказочный мир / Cirque du Soleil: Worlds Away (Эндрю Адамсон ...
  • Цирк дю Солей: Сказочный мир / Cirque du Soleil: Worlds Away (Эндрю Адамсон ...
  • Цирк дю Солей: Сказочный мир / Cirque du Soleil: Worlds Away (Эндрю Адамсон ...
  • [3D] Cirque du Soleil: Сказочный мир в 3D / Cirque du Soleil: Worlds Away ( ...
  • Cirque du Soleil: Сказочный мир в 3D / Cirque du Soleil: Worlds Away (Эндрю ...
  • Cirque du Soleil: Сказочный мир / Cirque du Soleil: Worlds Away (Эндрю Адам ...
  • Cirque du Soleil: Сказочный мир / Cirque du Soleil: Worlds Away (Эндрю Адам ...
  • Cirque du Soleil: Сказочный мир в 3D / Cirque du Soleil: Worlds Away (Эндрю ...
  • В хлам / Smashed (Джеймс Понсольдт, Драма, комедия, 2012) [HDRip, Профессио ...
  • [3D] Cirque du Soleil: Сказочный мир в 3D / Cirque du Soleil: Worlds Away ( ...
  • Плохая актриса / Bad Actress (Роберт Ли Кинг, комедия, 2011) [DVDRip, Профе ...
  • Супер циклон / Super Cyclone (Лиз Адамс / Liz Adams, боевик, 2012) [HDRip, ...
  • Захват / Carjacked (Джон Бонито, триллер, 2011)[BDRip, Профессиональный (мн ...
  • [3D] Цирк Дю Солей: Сказочный мир 3D трейлер / Cirque du Soleil: Worlds Awa ...
  • Чемпионат Европы 2012 / Группа C / 1-й тур / Ирландия — Хорватия / ТРК Футб ...
  • Tank Feat. T.I. & Kris Stephens / Compliments [2012, RnB,Hip-Hop, HDRip]
  • Супершторм в Сиэтле / Seattle Superstorm (Джейсон Бурк, фантастика, боевик ...
  • Олимпиада 2012 / Женщины, Мужчины / Плавание / Квалификация / НТВ+ [30.07.2 ...
  • Информация
    Посетители, находящиеся в группе Гости, не могут оставлять комментарии к данной публикации.