вход на сайт

Имя пользователя :
Пароль :

Восстановление пароля Регистрация
[France] Красный шар / Le ballon rouge (Альбер Ламорис, короткометражка, фэнтези, семейный, 1956) [DVDRip, Перевод: оригинал (французский) Не требуется, Субтитры: Rus]
Рейтинг:
(голосов: 1)



[img]{THEME}/images/logopost.png[/img]





[France] Красный шар / Le ballon rouge

Год выпуска: 1956
Страна: Франция
Производство: Films Montsouris
Жанр: короткометражка, фэнтези, семейный

Режиссёр: Альбер Ламорис
В ролях: Паскаль Ламорис, Жорж Селлер, Владимир Попов, Paul Perey, Рене Мэрион, Сабина Ламорис, Мишель Пезин, Рено, Дэвид Сешан

Перевод: Оригинал (французский) Не требуется
Субтитры: Русские (отдельно)

Описание:
Мальчик находит воздушный шар и вместе с ним блуждает по красивым улицам Парижа. Фильм интересен и без перевода, он и не нужен. Он понятен любому.


Дополнительно:
MediaInfo ▼Text
Общее
Полное имя :J:Кинокопилка.РуРАЗДАЧАКрасный шарKrasniy.shar.1956Krasniy.shar.1956.DVDRip.XviD.AC3.avi
Формат :AVI
Размер :559 MiB
Продолжительность :00:34:17.043
Общий поток :2 281 Kbps
Программа кодирования :VirtualDubModRus 1.5.10.2 (build 2542/release)
Библиотека кодирования :VirtualDubMod build 2542/release

Видео
Идентификатор :0
Формат :MPEG-4 Visual
Профиль формата :Advanced [email protected]
Параметр BVOP формата :1
Параметр Qpel формата :No
Параметр GMC формата :0
Параметр Matrix формата :Custom
Идентификатор кодека :XVID
Продолжительность :34mn 17s 42ms
Битрейт :2 080 Kbps
Ширина :720 pixels
Высота :544 pixels
Соотношение сторон :1.324
Частота кадров :24.000 fps
Глубина цвета :8 bits
Подвыборка цветности :4:2:0
Цветовое пространство :YUV
Тип развертки :Progressive
Бит/(Пиксели*Кадры) :0.221
Размер потока :510 MiB (91%)
Библиотека кодирования :XviD0055

Аудио #1
Идентификатор :1
Формат :AC-3
Формат/Информация :Audio Coding 3
Идентификатор кодека :2000
Продолжительность :00:34:17.043
Вид битрейта :Constant
Битрейт :192 Kbps
Канал(ы) :2 channels
Расположение каналов :Front: L R
Частота :48.0 KHz
Битовая глубина :16 bits
Метод сжатия :Lossy
Размер потока :47.1 MiB (8%)


 
910e2f11256ac7ee161580c169b93c5a3a1d41e6[France] Красный шар / Le ballon rouge (Альбер Ламорис, короткометражка, фэнтези, семейный, 1956) [DVDRip, Перевод: оригинал (французский) Не требуется, Субтитры: Rus] [France] Красный шар / Le ballon rouge (Альбер Ламорис, короткометражка, фэнтези, семейный, 1956) [DVDRip, Перевод: оригинал (французский) Не требуется, Субтитры: Rus] " />

Аплоадер: Админ, дата: 23-08-2012, 02:23, торрент скачан: 359 раз

Понравилась раздача? Посмотрите эти:
  • Сигнальщик / The Signalman (Лоуренс Гордон Кларк, короткометражка, ужасы, ...
  • На подмостках сцены (Константин Юдин, драма, комедия, 1956) [DVDRip, Не тре ...
  • Медовый месяц (Надежда Кошеверова, мелодрама, комедия, 1956) [DVDRip, Не тр ...
  • Где это видано, где это слыхано (Валентин Горлов, короткометражка, комедия, ...
  • Убийство на улице Данте (Михаил Ромм, драма, 1956) [DVDRip, Не требуется]
  • Пакет (Владимир Назаров, комедия, приключения, семейный, 1965) [DVDRip, Не ...
  • Двенадцать месяцев (2 части из 2) (Анатолий Граник, фэнтези, семейный, 1972 ...
  • Иван да Марья (Борис Рыцарев, фэнтези, мелодрама, комедия, семейный, музыка ...
  • Драма (Герман Ливанов, короткометражка, комедия, 1960) [DVDRip, Не требуетс ...
  • Ослиная шкура (Надежда Кошеверова, фэнтези, мелодрама, комедия, семейный, 1 ...
  • На графских развалинах (Владимир Скуйбин, приключения, семейный, 1957) [DVD ...
  • Мама (Элизабета Бостан, мюзикл, фэнтези, семейный, 1976) [DVDRip, Не требуе ...
  • Печёнка (Арман Манарян, короткометражка, комедия, 1962) [DVDRip, Не требует ...
  • Мульт-Салют. 14 ч. из 30: Аленький цветочек/Сестрица Аленушка и братец Иван ...
  • Как Иванушка-дурачок за чудом ходил (Надежда Кошеверова, фэнтези, семейный, ...
  • Майская ночь, или Утопленница (Александр Роу, фэнтези, комедия, 1952) [DVDR ...
  • Там, на неведомых дорожках... (Реставрирован) (Михаил Юзовский, фэнтези, се ...
  • Садко (Александр Птушко, фэнтези, приключения, 1952) [DVDRip, Не требуется] ...
  • Пока бьют часы (Геннадий Васильев, фэнтези, семейный, 1976) [DVDRip, Не тре ...
  • Путешествие на Луну / Le Voyage dans la Lune (Жорж Мельес, короткометражка, ...
  • 01-99 (Амаси Мартиросян, короткометражка, комедия, 1959) [DVDRip, Не требуе ...
  • Хозяин и слуга (Дмитрий Кесаянц, короткометражка, комедия, 1963) [DVDRip, Н ...
  • Хозяйка гостиницы (Михаил Названов, комедия, 1956) [DVDRip, Не требуется]
  • Драгоценный подарок (Александр Роу, семейный, 1956) [DVDRip, Не требуется]
  • В добрый час! (Виктор Эйсымонт, драма, мелодрама, 1956) [DVDRip, Не требует ...
  • Информация
    Посетители, находящиеся в группе Гости, не могут оставлять комментарии к данной публикации.