вход на сайт

Имя пользователя :
Пароль :

Восстановление пароля Регистрация
Последняя сказка Риты (Рената Литвинова, Фентези, драма, детектив, 2012) [DVDRip, Не требуется]
Рейтинг:
(голосов: 1)



[img]{THEME}/images/logopost.png[/img]



• Последняя сказка Риты •
♥ Год выпуска: 2012
♥ Страна: Россия
♥ Производство: Не известно
♥ Жанр: Фентези, драма, детектив

♥ Режиссёр: Рената Литвинова
♥ В ролях: Митя Борисов, Лев Данилкин, Сергей Дебижев, Татьяна Друбич, Альбина Евтушевская, Алиса Хазанова, Николай Хомерики, Ольга Кузина, Рената Литвинова, Сати Спивакова


♥ Перевод: Не требуется
♥ Субтитры: Нет

♥ Описание: Три женщины, три состояния души, три вечные темы: любовь, смерть и поиски счастья. И один ангел смерти, сопровождающий в иной мир души тех, кто способен любить. История, разворачивающаяся на грани реальности и запределья.
♥ Качество: DVDRip
♥ Продолжительность: 01:37:12

♥ Формат: AVI
♥ Видео кодек: XviD
♥ Аудио кодек: AC3
♥ Видео: 720x400 (16:9), 25.000fps, AVI1 563 kbps avg,0.217 bit/pixel
♥ Аудио: 48 kHz, AC3, 6 ch, ~448 kbps avg

♥ Дата премьеры (мир): 1 ноября 2012
♥ Дата премьеры (РФ): 18 октября 2012, «Вольга»

"Mediainfo" ▼
General
Format : AVI
Format/Info : Audio Video Interleave
File size : 1.37 GiB
Duration : 1h 36mn
Overall bit rate : 2 021 Kbps
Writing application : VirtualDubMod 1.5.10.2 (build 2540/release)
Writing library : VirtualDubMod build 2540/release
Video #0
ID : 0
Format : MPEG-4 Visual
Format profile : Advanced [email protected]
Format settings, BVOP : 1
Format settings, QPel : No
Format settings, GMC : No warppoints
Format settings, Matrix : Default (H.263)
Codec ID : XVID
Codec ID/Hint : XviD
Duration : 1h 36mn
Bit rate : 1 563 Kbps
Width : 720 pixels
Height : 400 pixels
Display aspect ratio : 16:9
Frame rate : 25.000 fps
Color space : YUV
Chroma subsampling : 4:2:0
Bit depth : 8 bits
Scan type : Progressive
Compression mode : Lossy
Bits/(Pixel*Frame) : 0.217
Stream size : 1.06 GiB (77%)
Writing library : XviD 1.2.1 (UTC 2008-12-04)
Audio #1
ID : 1
Format : AC-3
Format/Info : Audio Coding 3
Mode extension : CM (complete main)
Format settings, Endianness : Big
Codec ID : 2000
Duration : 1h 36mn
Bit rate mode : Constant
Bit rate : 448 Kbps
Channel(s) : 6 channels
Channel positions : Front: L C R, Side: L R, LFE
Sampling rate : 48.0 KHz
Bit depth : 16 bits
Compression mode : Lossy
Stream size : 311 MiB (22%)
Alignment : Aligned on
4e9bd3a1de4651046cfe760b79f613706ac5d3efПоследняя сказка Риты (Рената Литвинова, Фентези, драма, детектив, 2012) [DVDRip, Не требуется] Последняя сказка Риты (Рената Литвинова, Фентези, драма, детектив, 2012) [DVDRip, Не требуется] " />

Аплоадер: Админ, дата: 28-12-2012, 14:05, торрент скачан: 359 раз

Понравилась раздача? Посмотрите эти:
  • Готовые на всё / Workers - Pronti a tutto (Лоренцо Виньоло, Комедия, 2012) ...
  • Икона сезона (Сергей Швыдкой,Драма, комедия, 2013) [DVDRip, Не требуется]
  • Девушка и смерть (Йос Стеллинг, Драма, 2012) [DVDRip, Не требуется]
  • Мужество / Wymyk (Грег Зглински, драма, 2011) [DVDRip, Любительский (одного ...
  • Решала (Роман Асхаев, Драма,Криминал, 2012) [WEB-DLRip, Не требуется]
  • Решала (Роман Асхаев, Драма,Криминал, 2012) [WEB-DLRip, Не требуется]
  • Слепой поворот / Blind Turn (Роберт Орр, Триллер, драма, детектив, 2012) [W ...
  • Суперстар / Superstar (Ксавье Джианноли, Драма, комедия, 2012) [HDRip, Проф ...
  • В доме / Dans la maison (Франсуа Озон, Триллер, детектив, 2012) [HDRip, Про ...
  • Тюремщик / Screwed (Рег Тревисс / Reg Traviss, Драма, 2011) [DVDRip , Люби ...
  • Дом ветра (Вячеслав Златопольский, Драма, 2011) [DVDRip, Не требуется]
  • Доля ангелов / The Angels Share (Кен Лоуч, драма, комедия, 2012) [HDRip, Пр ...
  • Последняя сказка Риты (Рената Литвинова, Фентези, драма, детектив, 2012) [D ...
  • Чемпионат Европы 2012 / Группа D / 1-й тур / Украина - Швеция / Спорт 1 [11 ...
  • Три богатыря на дальних берегах (Константин Феоктистов, мультфильм, комедия ...
  • Искупление (Александр Прошкин, драма, 2012) [DVDRip, Не требуются]
  • (2012) Земфира / Последняя Сказка Риты (Rock ) [MP3, 320/CBR]
  • Последняя сказка Риты (Рената Литвинова, Фентези, драма, детектив, 2012) [D ...
  • Танец Дели (Иван Вырыпаев, драма, 2012) [DVDRip, Не требуется]
  • Последняя сказка Риты (Рената Литвинова, Фентези, драма, детектив, 2012) [D ...
  • Земфира. Зеленый театр в Земфире / Бонус-диск подарочного издания (Рената Л ...
  • Влюбленные (Валерий Бебко, Комедия, 2011) [DVDRip, Оригинал]
  • Олимпиада 2012 / Женщины, Мужчины / Плавание / Квалификация / НТВ+ [30.07.2 ...
  • Лига Европы 2012-13 / 5-й тур / Группа А / Анжи (Россия) - Удинезе (Италия) ...
  • Табу / Tabu (Мигель Гомеш, Драма, мелодрама, 2012) [DVDRip, Профессиональны ...
  • Информация
    Посетители, находящиеся в группе Гости, не могут оставлять комментарии к данной публикации.