вход на сайт

Имя пользователя :
Пароль :

Восстановление пароля Регистрация
Искупление (Александр Прошкин, драма, 2012) [DVDRip, Не требуются]
Рейтинг:
(голосов: 1)



[img]{THEME}/images/logopost.png[/img]



Искупление

Год выпуска: 2012
Страна: Россия
Производство: Не известно
Жанр: драма

Режиссёр: Александр Прошкин
В ролях: Виктория Романенко, Риналь Мухаметов, Андрей Панин, Татьяна Яковенко, Виктор Сухоруков, Сергей Дрейден, Екатерина Волкова, Николай Бутенин, Юрий Борисов, Алишер Умаров
Перевод: Не требуются

Описание: По одноименной повести Фридриха Горенштейна. Действие фильма разворачивается в канун первого послевоенного Нового 1946 года в разоренном южном городе, где еще совсем недавно жили в мире и согласии представители различных национальностей. Молох войны разделил их на жертв и палачей, породил бесконечное сострадание и нечеловеческую низость. Впрочем, и послевоенная жизнь в разрухе, голоде и нищете обернулась тяжким испытанием. Посудомойка, вдова героя-летчика, ворует из милицейской столовой, чтобы прокормить шестнадцатилетнюю дочь и двух доходяг, которых, по доброте душевной, приютила в своем убогом жилище. Возмущенная дочь доносит на мать - и та отправляется искупать грех в тюрьму...

"MI" ▼General
Complete name : C:Iskuplenie.2012.DVDRip.1_45.avi
Format : AVI
Format/Info : Audio Video Interleave
File size : 1.46 GiB
Duration : 2h 0mn
Overall bit rate : 1 736 Kbps
Writing application : VirtualDubMod 1.5.10.3 (build 2550/release)
Writing library : VirtualDubMod build 2550/release
Video
ID : 0
Format : MPEG-4 Visual
Format profile : Advanced [email protected]
Format settings, BVOP : 2
Format settings, QPel : No
Format settings, GMC : No warppoints
Format settings, Matrix : Custom
Codec ID : XVID
Codec ID/Hint : XviD
Duration : 2h 0mn
Bit rate : 1 278 Kbps
Width : 720 pixels
Height : 272 pixels
Display aspect ratio : 2.647
Frame rate : 25.000 fps
Color space : YUV
Chroma subsampling : 4:2:0
Bit depth : 8 bits
Scan type : Progressive
Compression mode : Lossy
Bits/(Pixel*Frame) : 0.261
Stream size : 1.07 GiB (74%)
Writing library : XviD 1.2.1 (UTC 2008-12-04)
Audio
ID : 1
Format : AC-3
Format/Info : Audio Coding 3
Mode extension : CM (complete main)
Codec ID : 2000
Duration : 2h 0mn
Bit rate mode : Constant
Bit rate : 448 Kbps
Channel(s) : 6 channels
Channel positions : Front: L C R, Side: L R, LFE
Sampling rate : 48.0 KHz
Bit depth : 16 bits
Compression mode : Lossy
Stream size : 386 MiB (26%)
Alignment : Split accross interleaves
Interleave, duration : 40 ms (1.00 video frame)
Interleave, preload duration : 500 ms
Sample
Качество: DVDRip (Исходник DVD9 R5)
Продолжительность: 02:00:22 час.

Формат: AVI
Видео кодек:XviD
Аудио кодек: AC3
Видео: 720x272 (2.65:1), XviD 1.2.1, 25 fps, 1278 kbps, 0,261 bit/pixel
Аудио: 48 kHz, 6 channels, ~488.00 kbps avg

Дата премьеры (РФ): 1 ноября 2012, «Каропрокат»



Стол заказов POWER | Отзывы | Вступление в POWER|Раздача до 5 скачавших


2624de323590f5b4b16b0074fbf192e7a13b012fИскупление (Александр Прошкин, драма, 2012) [DVDRip, Не требуются] Искупление (Александр Прошкин, драма, 2012) [DVDRip, Не требуются] " />

Аплоадер: Админ, дата: 17-12-2012, 23:07, торрент скачан: 359 раз

Понравилась раздача? Посмотрите эти:
  • Вирус / Flu (Ким Сон Су, Драма, 2013) [HDTVRip, Любительский (двухголосый з ...
  • Орудие смерти / A-i-deul... (Ли Гю Ман, Триллер, криминал, 2011) [DVDRip, П ...
  • Верное дельце / Une pure affaire (Александр Коффре, Боевик, Комедия, Кримин ...
  • Мои герои / Mes heros (Эрик Беснард, комедия, 2012) [HDRip, Профессиональны ...
  • Икона сезона (Сергей Швыдкой,Драма, комедия, 2013) [DVDRip, Не требуется]
  • Давид и мадам Ансен / David et Madame Hansen (Александр Астье, драма, 2012) ...
  • Мужество / Wymyk (Грег Зглински, драма, 2011) [DVDRip, Любительский (одного ...
  • Решала (Роман Асхаев, Драма,Криминал, 2012) [WEB-DLRip, Не требуется]
  • Решала (Роман Асхаев, Драма,Криминал, 2012) [WEB-DLRip, Не требуется]
  • Слепой поворот / Blind Turn (Роберт Орр, Триллер, драма, детектив, 2012) [W ...
  • Любовь на кончиках пальцев / Populaire (Режис Ройнсар, Мелодрама, комедия, ...
  • Экипаж / Flight (Роберт Земекис, Драма, 2012) [BDRip, Профессиональный (пол ...
  • Тюремщик / Screwed (Рег Тревисс / Reg Traviss, Драма, 2011) [DVDRip , Люби ...
  • Плохая актриса / Bad Actress (Роберт Ли Кинг, комедия, 2011) [DVDRip, Профе ...
  • Дом ветра (Вячеслав Златопольский, Драма, 2011) [DVDRip, Не требуется]
  • Захват / Carjacked (Джон Бонито, триллер, 2011)[BDRip, Профессиональный (мн ...
  • Чемпионат Европы 2012 / Группа C / 1-й тур / Ирландия — Хорватия / ТРК Футб ...
  • Чемпионат Европы 2012 / Группа D / 1-й тур / Украина - Швеция / Спорт 1 [11 ...
  • Олимпиада 2012 / Мужчины / Группа D / 1-й тур / Испания — Япония / НТВ+ [Фу ...
  • Последняя сказка Риты (Рената Литвинова, Фентези, драма, детектив, 2012) [D ...
  • Влюбленные (Валерий Бебко, Комедия, 2011) [DVDRip, Оригинал]
  • Чемпионат Европы 2012 / Группа B / 1-й тур / Германия - Португалия / Спорт ...
  • Супершторм в Сиэтле / Seattle Superstorm (Джейсон Бурк, фантастика, боевик ...
  • Олимпиада 2012 / Женщины, Мужчины / Плавание / Квалификация / НТВ+ [30.07.2 ...
  • Табу / Tabu (Мигель Гомеш, Драма, мелодрама, 2012) [DVDRip, Профессиональны ...
  • Информация
    Посетители, находящиеся в группе Гости, не могут оставлять комментарии к данной публикации.