вход на сайт

Имя пользователя :
Пароль :

Восстановление пароля Регистрация
1812: Уланская баллада (Олег Фесенко, приключения, 2012) [DVDRip, Не требуется]
Рейтинг:
(голосов: 1)



[img]{THEME}/images/logopost.png[/img]



• 1812: Уланская баллада •
♥ Год выпуска: 2012
♥ Страна: Россия
♥ Производство: Централ Партнершип, Фонд кино
♥ Жанр: Приключения

♥ Режиссёр: Олег Фесенко
♥ В ролях: Сергей Безруков, Антон Соколов, Анна Чиповская, Анатолий Белый, Станислав Дужников, Валерий Николаев, Алексей Макаров, Борис Клюев, Эрик Фратичелли, Гедиминас Адомайтис...

♥ Перевод: Не требуется
♥ Субтитры: Нет

♥ Описание: 1812 год. Накануне решающей битвы при Бородино тайный агент Наполеона похищает план сражения. Об этом становится известно Кутузову, и он посылает на перехват своих лучших улан. Путь их лежит в Польшу, где разворачивается бурный роман Наполеона с графиней Валевской…
♥ Качество: DVDRip [исх.DVD9 R5]
♥ Продолжительность: 01:30:47

♥ Формат: AVI
♥ Видео кодек: XviD
♥ Аудио кодек: MP3
♥ Видео: 656x368 (16:9), 25.000 fps, AVI949 kbps avg, 0.157 bit/pixel
♥ Аудио: 48 kHz, MP3,2 ch, ~128 kbps avg

♥ Дата премьеры (мир): 1 ноября 2012
♥ Дата премьеры (РФ): 1 ноября 2012, «Централ Партнершип»

"Mediainfo" ▼

Общее
Формат : AVI
Формат/Информация : Audio Video Interleave
Размер файла : 745 Мбайт
Продолжительность : 1 ч. 35 м.
Общий поток : 1087 Кбит/сек
Программа кодирования : VirtualDubMod 1.5.10.3 | www.virtualdub-fr.org || (build 2550/release)
Библиотека кодирования : VirtualDubMod build 2550/release

Видео
Идентификатор : 0
Формат : MPEG-4 Visual
Профиль формата : Advanced [email protected]
Параметр BVOP формата : 1
Параметр QPel формата : Нет
Параметр GMC формата : Без точки перехода
Параметр матрицы формата : Выборочная
Идентификатор кодека : XVID
Идентификатор кодека/Подсказка : XviD
Продолжительность : 1 ч. 35 м.
Битрейт : 949 Кбит/сек
Ширина : 656 пикселей
Высота : 368 пикселей
Соотношение сторон : 16:9
Частота кадров : 25,000 кадров/сек
Цветовое пространство : YUV
Субдискретизация насыщенности : 4:2:0
Битовая глубина : 8 бит
Тип развёртки : Прогрессивная
Метод сжатия : С потерями
Бит/(Пиксели*Кадры) : 0.157
Размер потока : 650 Мбайт (87%)
Библиотека кодирования : XviD 65

Аудио
Идентификатор : 1
Формат : MPEG Audio
Версия формата : Version 1
Профиль формата : Layer 3
Идентификатор кодека : 55
Идентификатор кодека/Подсказка : MP3
Продолжительность : 1 ч. 35 м.
Вид битрейта : Постоянный
Битрейт : 128 Кбит/сек
Каналы : 2 канала
Частота : 48,0 КГц
Метод сжатия : С потерями
Размер потока : 87,7 Мбайт (12%)
Выравнивание : Соединение по промежуткам
Продолжительность промежутка : 40 мс. (1,00 видеокадр)
Время предзагрузки промежутка : 504 мс.


Релиз Группы "Virtus"

Стол заказов / Вступление в РГ / Благодарности, критика и другое


b8e1add5983a70ea103e7e703a311e01227a4fda1812: Уланская баллада (Олег Фесенко, приключения, 2012) [DVDRip, Не требуется] 1812: Уланская баллада (Олег Фесенко, приключения, 2012) [DVDRip, Не требуется] " />

Аплоадер: Админ, дата: 16-12-2012, 04:44, торрент скачан: 359 раз

Понравилась раздача? Посмотрите эти:
  • Околофутбола (Антон Борматов, драма, криминал, 2013) [DVDRip, Не требуется] ...
  • 1812: Уланская баллада (Олег Фесенко, Приключения, 2012) [BDRip-AVC, Не тре ...
  • 1812: Уланская баллада (Олег Фесенко, Приключения, 2012) [BDRip-AVC, Не тре ...
  • 1812: Уланская баллада (Олег Фесенко, приключения, 2012) [HDRip-AVC, Не тре ...
  • 1812: Уланская баллада (Олег Фесенко, Приключения, 2012) [Blu-ray [RUS] 108 ...
  • 1812: Уланская баллада (Олег Фесенко, Приключения, 2012) [BDRip 720p, Не тр ...
  • 1812: Уланская баллада (Олег Фесенко, Приключения, 2012) [BDRip, Не требует ...
  • 1812: Уланская баллада (Олег Фесенко, Приключения, 2012) [BDRip, Не требует ...
  • Я тоже хочу (Алексей Балабанов, драма, криминал, 2012) [DVDRip, Не требуетс ...
  • Вечерний Ургант // Сезон 2. Выпуск 56 (ТВ-шоу, 11.12.2012) [SATRip, Не треб ...
  • 1812: Уланская баллада (Олег Фесенко, приключения, 2012) [DVDRip, Не требуе ...
  • 1812: Уланская баллада (Олег Фесенко, Приключения, 2012) [DVD9, Не требуетс ...
  • Любовь по расписанию / Поезд (Сергей Мезенцев, мелодрама, 2012) [HDTVRip, Н ...
  • К-9: Рождественские приключения / K9 Adventures: A Christmas Tale (Бен Гурл ...
  • Вечерний Ургант // Сезон 2. Выпуск 62 (ТВ-шоу, 19.12.2012) [SATRip, Не треб ...
  • Вечерний Ургант // Сезон 2. Выпуск 63 (ТВ-шоу, 20.12.2012) [SATRip, Не треб ...
  • Вечерний Ургант // Сезон 2. Выпуск 64 (ТВ-шоу, 21.12.2012) [SATRip, Не треб ...
  • Вечерний Ургант // Сезон 2. Выпуск 66 (ТВ-шоу, 25.12.2012) [SATRip, Не треб ...
  • Вечерний Ургант // Сезон 2. Выпуск 68 (ТВ-шоу, 27.12.2012) [SATRip, Не треб ...
  • Человек из банки (Иван Кульнев, Комедия, 2012) [DVDRip, Не требуется]
  • Информация
    Посетители, находящиеся в группе Гости, не могут оставлять комментарии к данной публикации.