вход на сайт

Имя пользователя :
Пароль :

Восстановление пароля Регистрация
С новым годом, мамы! (Сарик Андреасян, Артем Аксененко, Дмитрий Грачев, комедия, семейный, 2012) [DVDRip, Не требуется]
Рейтинг:
(голосов: 1)



[img]{THEME}/images/logopost.png[/img]



• С новым годом, мамы! •
♥ Год выпуска: 2012
♥ Страна: Россия
♥ Производство: Enjoy Movies
♥ Жанр: комедия, семейный

♥ Режиссёр: Сарик Андреасян, Артем Аксененко, Дмитрий Грачев
♥ В ролях: Елизавета Боярская, Максим Матвеев, Павел Воля, Ирина Розанова, Ален Делон, Екатерина Вилкова, Светлана Иванова, Максим Виторган, Константин Крюков, Гарик Харламов

♥ Перевод: Не требуется
♥ Субтитры: Нет

♥ Описание: В новой ленте зрители увидят новые истории и новые приключения новых героев, объединенных одним чувством — любовью к МАМЕ.

5 новелл. Смешные и трогательные, лиричные и комичные — каждая новелла расскажет историю мамы и ребенка, двух самых близких людей на свете. Ведь что бы ни происходило, мама всегда остается тем человеком, который будет любить всегда и несмотря ни на что…♥ Дата премьеры (мир): 27 декабря 2012
♥ Дата премьера (РФ): 27 декабря 2012, «Каропрокат»


♥ Качество: DVDRip | Сравнение скриншотов с этой раздачей
♥ Продолжительность: 01:21:02

♥ Формат: AVI
♥ Видео кодек: XviD
♥ Аудио кодек: MP3
♥ Видео: 720x304 (2.35:1), 25 fps, XviD 65 ~1148 kbps avg, 0.210 bit/pixel
♥ Аудио: 48 kHz, MPEG Layer 3, 2 ch, 128.00 kbps Constant

"Mediainfo" ▼
General
Complete name : S.novym.godom.mamy.2012.O.DVDRip.745MB_by_Yarmak23.avi
Format : AVI
Format/Info : Audio Video Interleave
File size : 745 MiB
Duration : 1h 21mn
Overall bit rate : 1 285 Kbps
Writing application : VirtualDubMod 1.5.10.3 | www.virtualdub-fr.org || (build 2550/release)
Writing library : VirtualDubMod build 2550/release

Video
ID : 0
Format : MPEG-4 Visual
Format profile : Advanced [email protected]
Format settings, BVOP : 1
Format settings, QPel : No
Format settings, GMC : No warppoints
Format settings, Matrix : Custom
Codec ID : XVID
Codec ID/Hint : XviD
Duration : 1h 21mn
Bit rate : 1 148 Kbps
Width : 720 pixels
Height : 304 pixels
Display aspect ratio : 2.35:1
Frame rate : 25.000 fps
Color space : YUV
Chroma subsampling : 4:2:0
Bit depth : 8 bits
Scan type : Progressive
Compression mode : Lossy
Bits/(Pixel*Frame) : 0.210
Stream size : 665 MiB (89%)
Writing library : XviD 65

Audio
ID : 1
Format : MPEG Audio
Format version : Version 1
Format profile : Layer 3
Codec ID : 55
Codec ID/Hint : MP3
Duration : 1h 20mn
Bit rate mode : Constant
Bit rate : 128 Kbps
Channel(s) : 2 channels
Sampling rate : 48.0 KHz
Compression mode : Lossy
Stream size : 74.2 MiB (10%)
Alignment : Aligned on interleaves
Interleave, duration : 40 ms (1.00 video frame)
Interleave, preload duration : 504 ms
Writing library : LAME3.99r
Encoding settings : -m s -V 4 -q 2 -lowpass 17 -b 128


Релиз Группы "Virtus"

Стол заказов / Вступление в РГ / Благодарности, критика и другое


fde115f6efcd9f64b2987b67647637e6b45ab1e3С новым годом, мамы! (Сарик Андреасян, Артем Аксененко, Дмитрий Грачев, комедия, семейный, 2012) [DVDRip, Не требуется] С новым годом, мамы! (Сарик Андреасян, Артем Аксененко, Дмитрий Грачев, комедия, семейный, 2012) [DVDRip, Не требуется] " />

Аплоадер: Админ, дата: 18-01-2013, 04:15, торрент скачан: 359 раз

Понравилась раздача? Посмотрите эти:
  • Решала (Роман Асхаев, Драма,Криминал, 2012) [WEB-DLRip, Не требуется]
  • Родительский беспредел / Parental Guidance (Энди Фикмен, комедия, семейный, ...
  • Реальные Парни / Stand Up Guys (Фишер Стивенс, Драма, комедия, криминал, 20 ...
  • [iPhone, iPod] С новым годом, мамы! (Сарик Андреасян, Комедия, Семейный, 20 ...
  • С новым годом, мамы! (Сарик Андреасян, Артем Аксененко, Дмитрий Грачев, Ком ...
  • С новым годом, мамы! (Сарик Андреасян, Артем Аксененко, Дмитрий Грачев, Ком ...
  • С новым годом, мамы! (Сарик Андреасян, Артем Аксененко, Дмитрий Грачев, Ком ...
  • С новым годом, мамы! (Сарик Андреасян, Артем Аксененко, Дмитрий Грачев, ко ...
  • С новым годом, мамы! (Сарик Андреасян, Артем Аксененко, Дмитрий Грачев, Ком ...
  • С новым годом, мамы! (Сарик Андреасян, Артем Аксененко, Дмитрий Грачев, Ком ...
  • С новым годом, мамы! (Сарик Андреасян, Артем Аксененко, Дмитрий Грачев, Ком ...
  • С новым годом, мамы! (Сарик Андреасян, Артем Аксененко, Дмитрий Грачев, Кли ...
  • Чемпионат Европы 2012 / Группа D / 1-й тур / Украина - Швеция / Спорт 1 [11 ...
  • Мулан 2 / Mulan II (Даррел Руни, Линн Сауферлэнд, мультфильм, мюзикл, боеви ...
  • С новым годом, мамы! (Сарик Андреасян, Артем Аксененко, Дмитрий Грачев, ком ...
  • Три богатыря на дальних берегах (Константин Феоктистов, мультфильм, комедия ...
  • С новым годом, мамы! (Сарик Андреасян, Артем Аксененко, Дмитрий Грачев, Ком ...
  • Последняя сказка Риты (Рената Литвинова, Фентези, драма, детектив, 2012) [D ...
  • [Тизер] С новым годом, мамы! (Сарик Андреасян, комедия, семейный) [HDTVRip ...
  • Чемпионат Европы 2012 / Группа B / 1-й тур / Германия - Португалия / Спорт ...
  • Информация
    Посетители, находящиеся в группе Гости, не могут оставлять комментарии к данной публикации.