вход на сайт

Имя пользователя :
Пароль :

Восстановление пароля Регистрация
Три богатыря на дальних берегах (Константин Феоктистов, мультфильм, комедия, приключения, 2012) [DVDRip, Не требуется]
Рейтинг:
(голосов: 1)



[img]{THEME}/images/logopost.png[/img]



• Три богатыря на дальних берегах •
♥ Год выпуска: 2012
♥ Страна: Россия
♥ Производство: Кинокомпания СТВ
♥ Жанр: мультфильм, комедия, приключения

♥ Режиссёр: Константин Феоктистов
♥ В ролях: Дмитрий Быковский-Ромашов, Валерий Соловьев, Олег Куликович, Сергей Маковецкий, Дмитрий Высоцкий, Фёдор Бондарчук, Елизавета Боярская, Мария Цветкова-Овсянникова, Елена Шульман, Лия Медведева

♥ Перевод: Не требуется
♥ Субтитры: Нет

♥ Описание: На этот раз Алеша Попович, Добрыня Никитич и Илья Муромец, благодаря козням коварной Бабы Яги, оказываются за семью морями на острове, на котором живут туземцы и страшный Гомума. В их отсутствие купец Колыван решают вместе с Бабой-Ягой захватить царство и забрать власть у князя Киевского. На помощь незадачливому правителю приходит конь Юлий, а также жены богатырей и их многочисленные родственники. Словом, богатырей и зрителей ждут приключения на дальних берегах, обыкновенные и невероятные.♥ Дата премьеры (мир): 27 декабря 2012
♥ Дата премьера (РФ): 27 декабря 2012, «Наше Кино»


♥ Качество: DVDRip | Сравнение скриншотов с этой раздачей
♥ Продолжительность: 01:08:22

♥ Формат: AVI
♥ Видео кодек: XviD
♥ Аудио кодек: AC3
♥ Видео: 720x400 (16:9), 25 fps, XviD 65 ~2399 kbps avg, 0.333 bit/pixel
♥ Аудио#1: 48 kHz, AC3 Dolby Digital, 3/2 (L,C,R,l,r) + LFE ch, ~448.00 kbps Constant
♥ Аудио#2: 48 kHz, AC3 Dolby Digital, 2/0 (L,R) ch, ~192 kbps Constant

"Mediainfo" ▼
General
Format : AVI
Format/Info : Audio Video Interleave
File size : 1.46 GiB
Duration : 1h 8mn
Overall bit rate : 3 054 Kbps
Writing application : VirtualDubMod 1.5.10.2 (build 2540/release)
Writing library : VirtualDubMod build 2540/release

Video
ID : 0
Format : MPEG-4 Visual
Format profile : Advanced [email protected]
Format settings, BVOP : 1
Format settings, QPel : No
Format settings, GMC : No warppoints
Format settings, Matrix : Custom
Codec ID : XVID
Codec ID/Hint : XviD
Duration : 1h 8mn
Bit rate : 2 399 Kbps
Width : 720 pixels
Height : 400 pixels
Display aspect ratio : 16:9
Frame rate : 25.000 fps
Color space : YUV
Chroma subsampling : 4:2:0
Bit depth : 8 bits
Scan type : Progressive
Compression mode : Lossy
Bits/(Pixel*Frame) : 0.333
Stream size : 1.15 GiB (79%)
Writing library : XviD 65

Audio #1
ID : 1
Format : AC-3
Format/Info : Audio Coding 3
Mode extension : CM (complete main)
Format settings, Endianness : Big
Codec ID : 2000
Duration : 1h 8mn
Bit rate mode : Constant
Bit rate : 448 Kbps
Channel(s) : 6 channels
Channel positions : Front: L C R, Side: L R, LFE
Sampling rate : 48.0 KHz
Bit depth : 16 bits
Compression mode : Lossy
Stream size : 219 MiB (15%)
Alignment : Split accross interleaves
Interleave, duration : 40 ms (1.00 video frame)
Interleave, preload duration : 500 ms

Audio #2
ID : 2
Format : AC-3
Format/Info : Audio Coding 3
Mode extension : CM (complete main)
Format settings, Endianness : Big
Codec ID : 2000
Duration : 1h 8mn
Bit rate mode : Constant
Bit rate : 192 Kbps
Channel(s) : 2 channels
Channel positions : Front: L R
Sampling rate : 48.0 KHz
Bit depth : 16 bits
Compression mode : Lossy
Stream size : 93.9 MiB (6%)
Alignment : Split accross interleaves
Interleave, duration : 40 ms (1.00 video frame)
Interleave, preload duration : 500 ms


Релиз Группы "Virtus"

Стол заказов / Вступление в РГ / Благодарности, критика и другое


1d90adc3a3e0ecdf88ce388149a2570d2a2e8b2fТри богатыря на дальних берегах (Константин Феоктистов, мультфильм, комедия, приключения, 2012) [DVDRip, Не требуется] Три богатыря на дальних берегах (Константин Феоктистов, мультфильм, комедия, приключения, 2012) [DVDRip, Не требуется] " />

Аплоадер: Админ, дата: 17-01-2013, 15:24, торрент скачан: 359 раз

Понравилась раздача? Посмотрите эти:
  • Верное дельце / Une pure affaire (Александр Коффре, Боевик, Комедия, Кримин ...
  • Мужество / Wymyk (Грег Зглински, драма, 2011) [DVDRip, Любительский (одного ...
  • Поймай толстуху, если сможешь [Театральная версия] / Identity Thief [Theatr ...
  • Решала (Роман Асхаев, Драма,Криминал, 2012) [WEB-DLRip, Не требуется]
  • Слепой поворот / Blind Turn (Роберт Орр, Триллер, драма, детектив, 2012) [W ...
  • [iPhone, iPod] Три богатыря на дальних берегах (Константин Феоктистов, муль ...
  • В хлам / Smashed (Джеймс Понсольдт, Драма, комедия, 2012) [HDRip, Профессио ...
  • Три богатыря на дальних берегах (Константин Феоктистов, Мультфильм, комедия ...
  • Три богатыря на дальних берегах (Константин Феоктистов, мультфильм, комедия ...
  • Три богатыря на дальних берегах (Константин Феоктистов, Мультфильм, комедия ...
  • Три богатыря на дальних берегах (Константин Феоктистов, Мультфильм, комедия ...
  • Три богатыря на дальних берегах (Константин Феоктистов, Мультфильм, комедия ...
  • [3D] Три богатыря на дальних берегах (Константин Феоктистов, Мультфильм, ко ...
  • [3D] Три богатыря на дальних берегах (Константин Феоктистов, Мультфильм, Ко ...
  • Три богатыря на дальних берегах (Константин Феоктистов, Мультфильм, комедия ...
  • Три богатыря на дальних берегах (Константин Феоктистов, Мультфильм,Комедия, ...
  • Плохая актриса / Bad Actress (Роберт Ли Кинг, комедия, 2011) [DVDRip, Профе ...
  • Три богатыря на дальних берегах (Константин Феоктистов, мультфильм, комедия ...
  • Супер циклон / Super Cyclone (Лиз Адамс / Liz Adams, боевик, 2012) [HDRip, ...
  • Захват / Carjacked (Джон Бонито, триллер, 2011)[BDRip, Профессиональный (мн ...
  • С новым годом, мамы! (Сарик Андреасян, Артем Аксененко, Дмитрий Грачев, Ком ...
  • Три богатыря на дальних берегах (Константин Феоктистов, мультфильм, комедия ...
  • С новым годом, мамы! (Сарик Андреасян, Артем Аксененко, Дмитрий Грачев, ком ...
  • Влюбленные (Валерий Бебко, Комедия, 2011) [DVDRip, Оригинал]
  • Супершторм в Сиэтле / Seattle Superstorm (Джейсон Бурк, фантастика, боевик ...
  • Информация
    Посетители, находящиеся в группе Гости, не могут оставлять комментарии к данной публикации.