вход на сайт

Имя пользователя :
Пароль :

Восстановление пароля Регистрация
С новым годом, мамы! (Сарик Андреасян, Артем Аксененко, Дмитрий Грачев, комедия, семейный, 2012) [DVDRip, Не требуется]
Рейтинг:
(голосов: 1)



[img]{THEME}/images/logopost.png[/img]



• С новым годом, мамы! •
♥ Год выпуска: 2012
♥ Страна: Россия
♥ Производство: Enjoy Movies
♥ Жанр: комедия, семейный

♥ Режиссёр: Сарик Андреасян, Артем Аксененко, Дмитрий Грачев
♥ В ролях: Елизавета Боярская, Максим Матвеев, Павел Воля, Ирина Розанова, Ален Делон, Екатерина Вилкова, Светлана Иванова, Максим Виторган, Константин Крюков, Гарик Харламов

♥ Перевод: Не требуется
♥ Субтитры: Нет

♥ Описание: В новой ленте зрители увидят новые истории и новые приключения новых героев, объединенных одним чувством — любовью к МАМЕ.

5 новелл. Смешные и трогательные, лиричные и комичные — каждая новелла расскажет историю мамы и ребенка, двух самых близких людей на свете. Ведь что бы ни происходило, мама всегда остается тем человеком, который будет любить всегда и несмотря ни на что…♥ Дата премьеры (мир): 27 декабря 2012
♥ Дата премьера (РФ): 27 декабря 2012, «Каропрокат»


♥ Качество: DVDRip | Сравнение скриншотов с этой раздачей
♥ Продолжительность: 01:21:02

♥ Формат: AVI
♥ Видео кодек: XviD
♥ Аудио кодек: AC3
♥ Видео: 720x304 (2.35:1), 25 fps, XviD 65 ~2116 kbps avg, 0.387 bit/pixel
♥ Аудио: 48 kHz, AC3 Dolby Digital, 3/2 (L,C,R,l,r) + LFE ch, 448.00 kbps Constant

"Mediainfo" ▼
General
Format : AVI
Format/Info : Audio Video Interleave
File size : 1.46 GiB
Duration : 1h 21mn
Overall bit rate : 2 573 Kbps
Writing application : VirtualDubMod 1.5.10.3 | www.virtualdub-fr.org || (build 2550/release)
Writing library : VirtualDubMod build 2550/release

Video
ID : 0
Format : MPEG-4 Visual
Format profile : Advanced [email protected]
Format settings, BVOP : 1
Format settings, QPel : No
Format settings, GMC : No warppoints
Format settings, Matrix : Custom
Codec ID : XVID
Codec ID/Hint : XviD
Duration : 1h 21mn
Bit rate : 2 116 Kbps
Width : 720 pixels
Height : 304 pixels
Display aspect ratio : 2.35:1
Frame rate : 25.000 fps
Color space : YUV
Chroma subsampling : 4:2:0
Bit depth : 8 bits
Scan type : Progressive
Compression mode : Lossy
Bits/(Pixel*Frame) : 0.387
Stream size : 1.20 GiB (82%)
Writing library : XviD 65

Audio
ID : 1
Format : AC-3
Format/Info : Audio Coding 3
Mode extension : CM (complete main)
Format settings, Endianness : Big
Codec ID : 2000
Duration : 1h 20mn
Bit rate mode : Constant
Bit rate : 448 Kbps
Channel(s) : 6 channels
Channel positions : Front: L C R, Side: L R, LFE
Sampling rate : 48.0 KHz
Bit depth : 16 bits
Compression mode : Lossy
Stream size : 260 MiB (17%)
Alignment : Split accross interleaves
Interleave, duration : 40 ms (1.00 video frame)
Interleave, preload duration : 500 ms


Релиз Группы "Virtus"

Стол заказов / Вступление в РГ / Благодарности, критика и другое


6e881e67ee427b859dd231dc6bf1caec9bf804e6С новым годом, мамы! (Сарик Андреасян, Артем Аксененко, Дмитрий Грачев, комедия, семейный, 2012) [DVDRip, Не требуется] С новым годом, мамы! (Сарик Андреасян, Артем Аксененко, Дмитрий Грачев, комедия, семейный, 2012) [DVDRip, Не требуется] " />

Аплоадер: Админ, дата: 17-01-2013, 11:11, торрент скачан: 359 раз

Понравилась раздача? Посмотрите эти:
  • Икона сезона (Сергей Швыдкой,Драма, комедия, 2013) [DVDRip, Не требуется]
  • Решала (Роман Асхаев, Драма,Криминал, 2012) [WEB-DLRip, Не требуется]
  • Любовь на кончиках пальцев / Populaire (Режис Ройнсар, Мелодрама, комедия, ...
  • Реальные Парни / Stand Up Guys (Фишер Стивенс, Драма, комедия, криминал, 20 ...
  • [iPhone, iPod] С новым годом, мамы! (Сарик Андреасян, Комедия, Семейный, 20 ...
  • Марко Макако / Marco Macaco (Жан Рабек, мультфильм, комедия, семейный, 2012 ...
  • Весенние надежды / Hope Springs (Дэвид Фрэнкел, Драма, мелодрама, комедия, ...
  • С новым годом, мамы! (Сарик Андреасян, Артем Аксененко, Дмитрий Грачев, Ком ...
  • С новым годом, мамы! (Сарик Андреасян, Артем Аксененко, Дмитрий Грачев, Ком ...
  • С новым годом, мамы! (Сарик Андреасян, Артем Аксененко, Дмитрий Грачев, Ком ...
  • С новым годом, мамы! (Сарик Андреасян, Артем Аксененко, Дмитрий Грачев, ко ...
  • С новым годом, мамы! (Сарик Андреасян, Артем Аксененко, Дмитрий Грачев, Ком ...
  • С новым годом, мамы! (Сарик Андреасян, Артем Аксененко, Дмитрий Грачев, Ком ...
  • С новым годом, мамы! (Сарик Андреасян, Артем Аксененко, Дмитрий Грачев, Ком ...
  • С новым годом, мамы! (Сарик Андреасян, Артем Аксененко, Дмитрий Грачев, Кли ...
  • Три богатыря на дальних берегах (Константин Феоктистов, мультфильм, комедия ...
  • С новым годом, мамы! (Сарик Андреасян, Артем Аксененко, Дмитрий Грачев, Ком ...
  • С новым годом, мамы! (Сарик Андреасян, Артем Аксененко, Дмитрий Грачев, ком ...
  • [Тизер] С новым годом, мамы! (Сарик Андреасян, комедия, семейный) [HDTVRip ...
  • Влюбленные (Валерий Бебко, Комедия, 2011) [DVDRip, Оригинал]
  • Информация
    Посетители, находящиеся в группе Гости, не могут оставлять комментарии к данной публикации.