вход на сайт

Имя пользователя :
Пароль :

Восстановление пароля Регистрация
Я тоже хочу (Алексей Балабанов, драма, криминал, 2012) [DVDRip, Не требуется]
Рейтинг:
(голосов: 1)



[img]{THEME}/images/logopost.png[/img]



• Я тоже хочу •
♥ Год выпуска: 2012
♥ Страна: Россия
♥ Производство: Фонд кино,Кинокомпания CTB
♥ Жанр: драма, криминал

♥ Режиссёр: Алексей Балабанов
♥ В ролях: Александр Мосин, Олег Гаркуша, Юрий Матвеев, Алиса Шитикова, Алексей Балабанов, Петр Балабанов, Виктор Горбунов, Авдотья Смирнова, Сергей Шолохов, Сергей Кульчицкий...

♥ Перевод: Не требуется
♥ Субтитры: Нет

♥ Описание: По пустынной летней дороге мчится огромный черный джип. В нем — Бандит, его друг Матвей со стариком-отцом, Музыкант и красивая девушка. Они ищут Колокольню Счастья, которая по слухам находится где-то между Питером и Угличем, рядом с уже давно неработающей атомной станцией. Колокольня забирает людей. Но не всех. Но в темной большой машине каждый верит, что выберут его.♥ Дата премьеры (мир): 6 сентября 2012
♥ Дата премьера (РФ): 13 декабря 2012, «Наше Кино»


♥ Качество: DVDRip
♥ Продолжительность: 01:19:51

♥ Формат: AVI
♥ Видео кодек: XviD
♥ Аудио кодек: MP3
♥ Видео: 720x384 (1.85:1), 25 fps, XviD ~ 1167 kbps avg, 0.169 bit/pixel
♥ Аудио: 48 kHz, МР3 , 2 ch, 128.00 kbps

"Mediainfo" ▼
Общее
Полное имя : Ya.tozhe.hochu.2012.O.DVDRip.745MB_[Youtracker]_by_avproh.avi
Формат : AVI
Формат/Информация : Audio Video Interleave
Размер файла : 745 Мбайт
Продолжительность : 1 ч. 19 м.
Общий поток : 1304 Кбит/сек
Программа кодирования : VirtualDubMod 1.5.10.3 | www.virtualdub-fr.org || (build 2550/release)
Библиотека кодирования : VirtualDubMod build 2550/release

Видео
Идентификатор : 0
Формат : MPEG-4 Visual
Профиль формата : Advanced [email protected]
Параметр BVOP формата : 1
Параметр QPel формата : Нет
Параметр GMC формата : Без точки перехода
Параметр матрицы формата : Выборочная
Идентификатор кодека : XVID
Идентификатор кодека/Подсказка : XviD
Продолжительность : 1 ч. 19 м.
Битрейт : 1167 Кбит/сек
Ширина : 720 пикселей
Высота : 384 пикселя
Соотношение сторон : 1,85:1
Частота кадров : 25,000 кадров/сек
Цветовое пространство : YUV
Субдискретизация насыщенности : 4:2:0
Битовая глубина : 8 бит
Тип развёртки : Прогрессивная
Метод сжатия : С потерями
Бит/(Пиксели*Кадры) : 0.169
Размер потока : 666 Мбайт (89%)
Библиотека кодирования : XviD 65

Аудио
Идентификатор : 1
Формат : MPEG Audio
Версия формата : Version 1
Профиль формата : Layer 3
Идентификатор кодека : 55
Идентификатор кодека/Подсказка : MP3
Продолжительность : 1 ч. 19 м.
Вид битрейта : Постоянный
Битрейт : 128 Кбит/сек
Каналы : 2 канала
Частота : 48,0 КГц
Метод сжатия : С потерями
Размер потока : 73,1 Мбайт (10%)
Выравнивание : Соединение по промежуткам
Продолжительность промежутка : 40 мс. (1,00 видеокадр)
Время предзагрузки промежутка : 504 мс.


Релиз Группы "Virtus"

Стол заказов / Вступление в РГ / Благодарности, критика и другое


5cebc3a4d1bd0297eb52c6cb129c37fea5c846e4Я тоже хочу (Алексей Балабанов, драма, криминал, 2012) [DVDRip, Не требуется] Я тоже хочу (Алексей Балабанов, драма, криминал, 2012) [DVDRip, Не требуется] " />

Аплоадер: Админ, дата: 17-01-2013, 03:33, торрент скачан: 359 раз

Понравилась раздача? Посмотрите эти:
  • Брат [Дилогия] (Алексей Балабанов, Боевик, драма, криминал, музыка, 1997, 2 ...
  • Околофутбола (Антон Борматов, драма, криминал, 2013) [DVDRip, Не требуется] ...
  • Околофутбола (Антон Борматов, драма, криминал, 2013) [DVDRip, Не требуется] ...
  • Я тоже хочу (Алексей Балабанов, Драма, криминал, 2012) [BDRip-AVC, Не требу ...
  • Я тоже хочу (Алексей Балабанов, Драма, криминал, 2012) [BDRip-AVC, Не требу ...
  • Я тоже хочу (Алексей Балабанов, Драма, криминал, 2012) [BDRip-AVC, Не требу ...
  • Я тоже хочу (Алексей Балабанов, Драма, криминал, 2012) [HDRip, Не требуется ...
  • Я тоже хочу (Алексей Балабанов, Драма, криминал, 2012) [Blu-ray [RUS] 1080p ...
  • Я тоже хочу (Алексей Балабанов, Драма, криминал, 2012) [BDRip 1080p, Не тре ...
  • Я тоже хочу (Алексей Балабанов, Драма, криминал, 2012) [BDRip 720p, Не треб ...
  • Я тоже хочу (Алексей Балабанов, Драма, криминал, 2012) [BDRip-AVC, не требу ...
  • Я тоже хочу (Алексей Балабанов, драма, криминал, 2012) [DVDRip-AVC, Не треб ...
  • Я тоже хочу (Алексей Балабанов, драма, криминал, 2012) [DVDRip-AVC, Не треб ...
  • Я тоже хочу (Алексей Балабанов, Драма, криминал, 2012) [DVD9, Не требуется] ...
  • [iPhone, iPod] Я тоже хочу (Алексей Балабанов, драма, криминал, 2012) [480x ...
  • Я тоже хочу (Алексей Балабанов, драма, криминал, 2012) [DVDRip, Не требуетс ...
  • 1812: Уланская баллада (Олег Фесенко, приключения, 2012) [DVDRip, Не требуе ...
  • Любовь по расписанию / Поезд (Сергей Мезенцев, мелодрама, 2012) [HDTVRip, Н ...
  • Вечерний Ургант // Сезон 2. Выпуск 63 (ТВ-шоу, 20.12.2012) [SATRip, Не треб ...
  • Вечерний Ургант // Сезон 2. Выпуск 66 (ТВ-шоу, 25.12.2012) [SATRip, Не треб ...
  • Информация
    Посетители, находящиеся в группе Гости, не могут оставлять комментарии к данной публикации.