вход на сайт

Имя пользователя :
Пароль :

Восстановление пароля Регистрация
Мой парень – псих / Silver Linings Playbook (Дэвид О. Расселл, Драма, мелодрама, комедия, 2012) [DVDRip, Профессиональный (многоголосый закадровый)]
Рейтинг:
(голосов: 1)



[img]{THEME}/images/logopost.png[/img]



• Мой парень – псих / Silver Linings Playbook •
«На каждого психа найдётся своя чокнутая»

Год выпуска: 2012
Страна: США
Производство: Weinstein Company, The, Mirage Enterprises
Жанр: Драма, мелодрама, комедия

Режиссёр: Дэвид О. Расселл
В ролях: Брэдли Купер, Дженнифер Лоуренс, Роберт Де Ниро, Джеки Уивер, Крис Такер, Анупам Кхер, Джон Ортиз, Ши Уигхэм, Джулия Стайлз, Пол Херман

Перевод: Профессиональный (многоголосый закадровый)
Субтитры: Нет

Описание: Главная перемена в жизни героя, после того, как жена ему изменяет — что у него диагностируют биполярное расстройство, и он 8 месяцев проводит в психушке. После чего по решению суда не должен с ней встречаться.Дата премьеры (мир): 8 сентября 2012
Дата премьеры (РФ): 22 ноября 2012, «Top Film Distribution»

Качество: DVDRip |Сэмпл
Продолжительность: 01:57:07


Формат: AVI
Видео кодек: XviD
Аудио кодек: MP3
Видео: 640x272 (2.35:1), 25 fps, XviD build 50 ~752 kbps avg, 0.17 bit/pixel
Аудио: 48 kHz, MPEG Layer 3, 2 ch, ~128.00 kbps avg

"Mediainfo:" ▼TextGeneral
Format : AVI
Format/Info : Audio Video Interleave
File size : 746 MiB
Duration : 1h 57mn
Overall bit rate : 891 Kbps
Writing application : VirtualDubMod 1.5.10.2 (build 2540/release)
Writing library : VirtualDubMod build 2540/release
Video #0
ID : 0
Format : MPEG-4 Visual
Format profile : Advanced [email protected]
Format settings, BVOP : Yes
Format settings, QPel : No
Format settings, GMC : No warppoints
Format settings, Matrix : Custom
Codec ID : XVID
Codec ID/Hint : XviD
Duration : 1h 57mn
Bit rate : 753 Kbps
Width : 640 pixels
Height : 272 pixels
Display aspect ratio : 2.35:1
Frame rate : 25.000 fps
Color space : YUV
Chroma subsampling : 4:2:0
Bit depth : 8 bits
Scan type : Progressive
Compression mode : Lossy
Bits/(Pixel*Frame) : 0.173
Stream size : 631 MiB (85%)
Writing library : XviD 1.2.1 (UTC 2008-12-04)
Audio #1
ID : 1
Format : MPEG Audio
Format version : Version 1
Format profile : Layer 3
Codec ID : 55
Codec ID/Hint : MP3
Duration : 1h 57mn
Bit rate mode : Constant
Bit rate : 128 Kbps
Channel(s) : 2 channels
Sampling rate : 48.0 KHz
Compression mode : Lossy
Stream size : 107 MiB (14%)
Alignment : Aligned on interleaves
Interleave, duration : 40 ms (1.00 video frame)
Interleave, preload duration : 504 ms
Writing library : LAME3.97
Encoding settings : -m s -V 4 -q 2 -lowpass 17 -b 128


Релиз Группы "Virtus"

Стол заказов / Вступление в РГ / Благодарности, критика и другое


5b1f038cbe69bbb71a05b35441098f7199ca91f6Мой парень – псих / Silver Linings Playbook (Дэвид О. Расселл, Драма, мелодрама, комедия, 2012) [DVDRip, Профессиональный (многоголосый закадровый)] Мой парень – псих / Silver Linings Playbook (Дэвид О. Расселл, Драма, мелодрама, комедия, 2012) [DVDRip, Профессиональный (многоголосый закадровый)] " />

Аплоадер: Админ, дата: 28-01-2013, 04:08, торрент скачан: 359 раз

Понравилась раздача? Посмотрите эти:
  • Мой парень – псих / Silver Linings Playbookе (Дэвид О. Расселл, Драма, мело ...
  • Мой парень – псих / Silver Linings Playbook (Дэвид О. Расселл, Драма, мелод ...
  • Мой парень – псих / Silver Linings Playbook (Дэвид О. Расселл, Драма, мелод ...
  • Мой парень – псих / Silver Linings Playbook (Дэвид О. Расселл, Драма, мелод ...
  • Мой парень – псих / Silver Linings Playbook (Дэвид О. Расселл, Драма, мелод ...
  • Мой парень – псих / Silver Linings Playbook (Дэвид О. Расселл, драма, мелод ...
  • Мой парень – псих / Silver Linings Playbook (Дэвид О. Расселл, Драма, мелод ...
  • Мой парень – псих / Silver Linings Playbook (Дэвид О. Расселл, Драма, мелод ...
  • Мой парень – псих / Silver Linings Playbook (Дэвид О. Расселл, Драма, мелод ...
  • Мой парень – псих / Silver Linings Playbook (Дэвид О. Расселл, Драма, мелод ...
  • Мой парень – псих / Silver Linings Playbook (Дэвид О. Расселл, Драма, мелод ...
  • [iPhone, iPod] Мой парень - псих / Silver Linings Playboo (Дэвид О. Расселл ...
  • Лучший стрелок / Top Gun (Тони Скотт, боевик, драма, мелодрама, 1986) [BDRi ...
  • Мой парень – псих / Silver Linings Playbook (Дэвид О. Расселл, драма, мелод ...
  • Мой парень – псих / Silver Linings Playbook (Дэвид О. Расселл, драма, мелод ...
  • Мой парень – псих / Silver Linings Playbook (Дэвид О. Расселл, Драма, мелод ...
  • Чемпионат Европы 2012 / Группа D / 1-й тур / Украина - Швеция / Спорт 1 [11 ...
  • Чемпионат Европы 2012 / Группа B / 1-й тур / Германия - Португалия / Спорт ...
  • Мгновение любви / Here (Браден Кинг, Драма, мелодрама, приключения, 2011) [ ...
  • [Трейлер] Мой парень - псих / Silver Linings Playbook (Дэвид О. Расселл, ко ...
  • Информация
    Посетители, находящиеся в группе Гости, не могут оставлять комментарии к данной публикации.