вход на сайт

Имя пользователя :
Пароль :

Восстановление пароля Регистрация
Коллекционер 2 / The Collection (Маркус Данстэн, ужасы, боевик, триллер , 2012) [BDRip-AVC, Профессиональный (полное дублирование) + Оригинал (английский) + Sub]
Рейтинг:
(голосов: 1)



[img]{THEME}/images/logopost.png[/img]



• Коллекционер 2 / The Collection •
«Не попади в его коллекцию»

Год выпуска: 2012
Страна: США
Производство: Fortress Features, Liddell Entertainment
Жанр: Ужасы, боевик, триллер

Режиссёр: Маркус Данстэн
В ролях: Джош Стюарт, Эмма Фитцпатрик, Кристофер МакДональд, Ли Тергесен, Тим Гриффин, Андре Ройо, Рэндолл Арчер, Шеннон Кэйн, Брэндон, Молале, Эрин Вэй

Перевод: Профессиональный (полное дублирование) + Оригинал (английский)
Субтитры: Русские

Описание: Бывалому медвежатнику Аркину чудесным образом удалось выбраться из ловушек, расставленных по дому загадочным маньяком Коллекционером. Аркин был уверен, что он никогда в жизни больше не встретится с Коллекциoнером, но cудьба распоряжается иначе.Дата премьеры (мир): 21 сентября 2012
Дата премьеры (РФ): 29 ноября 2012, «Каравелла DDC»

Автор рипа:


Качество: BDRip-AVC |Сэмпл
Продолжительность: 01:21:38


Формат: MKV
Видео кодек: H.264
Аудио кодек: AC3
Видео: H.264, 1152x480 (2,40:1), 24,000 fps, 2928 Кbps, 0.221 bit/pixel
Аудио#1: 48 kHz, AC3 Dolby Digital, 3/2 (L,C,R,l,r) + LFE ch, ~448.00 kbps avg | RUS
Аудио#2: 48 kHz, AC3 Dolby Digital, 3/2 (L,C,R,l,r) + LFE ch, ~448.00 kbps avg | ENG

"Mediainfo:" ▼TextGeneral
Format : Matroska
Format version : Version 2
File size : 2.18 GiB
Duration : 1h 21mn
Overall bit rate : 3 820 Kbps
Movie name : -=POTROKS=-
Encoded date : UTC 2013-01-26 20:14:31
Writing application : mkvmerge v5.7.0 (The Whirlwind) built on Jul 8 2012 20:08:51
Writing library : libebml v1.2.3 + libmatroska v1.3.0

Video
ID : 1
Format : AVC
Format/Info : Advanced Video Codec
Format profile : [email protected]
Format settings, CABAC : Yes
Format settings, ReFrames : 13 frames
Codec ID : V_MPEG4/ISO/AVC
Duration : 1h 21mn
Bit rate : 2 928 Kbps
Width : 1 152 pixels
Height : 480 pixels
Display aspect ratio : 2.40:1
Frame rate mode : Constant
Frame rate : 24.000 fps
Color space : YUV
Chroma subsampling : 4:2:0
Bit depth : 8 bits
Scan type : Progressive
Bits/(Pixel*Frame) : 0.221
Stream size : 1.62 GiB (75%)
Title : Коллекционер 2
Writing library : x264 core 128 r2216M 198a7ea
Encoding settings : cabac=1 / ref=14 / deblock=1:-2:-2 / analyse=0x3:0x133 / me=umh / subme=11 / psy=1 / psy_rd=1.05:0.00 / mixed_ref=1 / me_range=32 / chroma_me=1 / trellis=2 / 8x8dct=1 / cqm=0 / deadzone=21,11 / fast_pskip=0 / chroma_qp_offset=-2 / threads=4 / lookahead_threads=1 / sliced_threads=0 / nr=0 / decimate=1 / interlaced=0 / bluray_compat=0 / constrained_intra=0 / bframes=15 / b_pyramid=1 / b_adapt=2 / b_bias=0 / direct=3 / weightb=1 / open_gop=1 / weightp=2 / keyint=240 / keyint_min=24 / scenecut=40 / intra_refresh=0 / rc_lookahead=150 / rc=2pass / mbtree=1 / bitrate=2928 / ratetol=1.0 / qcomp=0.70 / qpmin=0 / qpmax=69 / qpstep=3 / cplxblur=20.0 / qblur=0.5 / vbv_maxrate=20000 / vbv_bufsize=25000 / nal_hrd=none / ip_ratio=1.35 / aq=1:0.70
Language : English
Default : Yes
Forced : No

Audio #1
ID : 2
Format : AC-3
Format/Info : Audio Coding 3
Mode extension : CM (complete main)
Format settings, Endianness : Big
Codec ID : A_AC3
Duration : 1h 21mn
Bit rate mode : Constant
Bit rate : 448 Kbps
Channel(s) : 6 channels
Channel positions : Front: L C R, Side: L R, LFE
Sampling rate : 48.0 KHz
Bit depth : 16 bits
Compression mode : Lossy
Delay relative to video : 32ms
Stream size : 262 MiB (12%)
Title : Dub | DD 5.1 @ 448 kbps
Language : Russian
Default : Yes
Forced : Yes

Audio #2
ID : 3
Format : AC-3
Format/Info : Audio Coding 3
Mode extension : CM (complete main)
Format settings, Endianness : Big
Codec ID : A_AC3
Duration : 1h 21mn
Bit rate mode : Constant
Bit rate : 448 Kbps
Channel(s) : 6 channels
Channel positions : Front: L C R, Side: L R, LFE
Sampling rate : 48.0 KHz
Bit depth : 16 bits
Compression mode : Lossy
Delay relative to video : 59ms
Stream size : 262 MiB (12%)
Title : Original | DD 5.1 @ 448 kbps
Language : English
Default : No
Forced : No

Tex
d24bbe27659174083ca32c0bd6f977c603e3c91eКоллекционер 2 / The Collection (Маркус Данстэн, ужасы, боевик, триллер , 2012) [BDRip-AVC, Профессиональный (полное дублирование) + Оригинал (английский) + Sub] Коллекционер 2 / The Collection (Маркус Данстэн, ужасы, боевик, триллер , 2012) [BDRip-AVC, Профессиональный (полное дублирование) + Оригинал (английский) + Sub] " />

Аплоадер: Админ, дата: 27-01-2013, 03:39, торрент скачан: 359 раз

Понравилась раздача? Посмотрите эти:
  • Коллекционер [Дилогия] / The Collection [Dilogy] (Маркус Данстэн, Ужасы, бо ...
  • Пастырь / Priest (Скотт Чарльз Стюарт, ужасы, фантастика, боевик, триллер, ...
  • Семь психопатов / Seven Psychopaths (Мартин МакДона, Триллер, комедия, крим ...
  • Соучастник / Collateral (Майкл Манн, Триллер, драма, криминал, 2004) [BDRip ...
  • Палата / The Ward (Джон Карпентер, Ужасы, триллер, 2010) [BDRip-AVC, Профес ...
  • Коллекционер 2 / The Collection (Маркус Данстэн, Ужасы, боевик, триллер, 20 ...
  • Коллекционер 2 / The Collector (Маркус Данстэн, Ужасы, Боевик, Триллер, 201 ...
  • Коллекционер 2 / The Collection (Маркус Данстэн, Ужасы, боевик, триллер, 20 ...
  • Сайлент Хилл 2 / Silent Hill: Revelation 3D (Майкл Дж. Бассетт, ужасы, трил ...
  • Хорошо быть тихоней / The Perks of Being a Wallflower (Стивен Чбоски, Драма ...
  • Патруль / End of Watch (Дэвид Эйр, Триллер, драма, криминал, 2012) [BDRip-A ...
  • Коллекционер 2 / The Collection (Маркус Данстэн, Ужасы, боевик, триллер, 20 ...
  • Коллекционер 2 / The Collection (Маркус Данстэн, ужасы, боевик, триллер, 20 ...
  • Коллекционер 2 / The Collection (Маркус Данстэн, ужасы, боевик, триллер , 2 ...
  • Коллекционер 2 / The Collection (Маркус Данстэн, Ужасы, боевик, триллер, 20 ...
  • Другой мир: Пробуждение / Underworld: Awakening (Монс Морлинд, Бьёрн Стейн, ...
  • Коллекционер 2 / The Collection (Маркус Данстэн, ужасы, боевик, триллер, 20 ...
  • Коллекционер 2 / The Collection (Маркус Данстэн, ужасы, боевик, триллер, 20 ...
  • Коллекционер / The Collector (Маркус Данстэн, Ужасы, триллер, 2009) [BDRip- ...
  • [Трейлер] Коллекционер 2 / The Collection (Маркус Данстэн, ужасы, боевик, т ...
  • Информация
    Посетители, находящиеся в группе Гости, не могут оставлять комментарии к данной публикации.