вход на сайт

Имя пользователя :
Пароль :

Восстановление пароля Регистрация
Коллекционер 2 / The Collection (Маркус Данстэн, ужасы, боевик, триллер , 2012) [HDRip, Профессиональный (полное дублирование)]
Рейтинг:
(голосов: 1)



[img]{THEME}/images/logopost.png[/img]



• Коллекционер 2 / The Collection •
«Не попади в его коллекцию»

Год выпуска: 2012
Страна: США
Производство: Fortress Features, Liddell Entertainment
Жанр: Ужасы, боевик, триллер

Режиссёр: Маркус Данстэн
В ролях: Джош Стюарт, Эмма Фитцпатрик, Кристофер МакДональд, Ли Тергесен, Тим Гриффин, Андре Ройо, Рэндолл Арчер, Шеннон Кэйн, Брэндон, Молале, Эрин Вэй

Перевод: Профессиональный (полное дублирование)
Субтитры: Нет

Описание: Бывалому медвежатнику Аркину чудесным образом удалось выбраться из ловушек, расставленных по дому загадочным маньяком Коллекционером. Аркин был уверен, что он никогда в жизни больше не встретится с Коллекциoнером, но cудьба распоряжается иначе.Дата премьеры (мир): 21 сентября 2012
Дата премьеры (РФ): 29 ноября 2012, «Каравелла DDC»

Качество: HDRip |Сэмпл | Сравнение скриншотов с этой раздачей
Продолжительность: 01:18:24


Формат: AVI
Видео кодек: XviD
Аудио кодек: AC3
Видео: 720x304 (2.35,:1), 24.000 fps, XviD build 50 ~2083 kbps avg, 0.397 bit/pixel
Аудио: 48 kHz, AC3 Dolby Digital, 3/2 (L,C,R,l,r) + LFE ch, ~448.00 kbps avg

"Mediainfo:" ▼TextGeneral
Format : AVI
Format/Info : Audio Video Interleave
File size : 1.45 GiB
Duration : 1h 21mn
Overall bit rate : 2 541 Kbps
Writing application : VirtualDubMod 1.5.10.2 (build 2540/release)
Writing library : VirtualDubMod build 2540/release
Video #0
ID : 0
Format : MPEG-4 Visual
Format profile : Advanced [email protected]
Format settings, BVOP : Yes
Format settings, QPel : No
Format settings, GMC : No warppoints
Format settings, Matrix : Custom
Codec ID : XVID
Codec ID/Hint : XviD
Duration : 1h 21mn
Bit rate : 2 083 Kbps
Width : 720 pixels
Height : 304 pixels
Display aspect ratio : 2.35:1
Frame rate : 24.000 fps
Color space : YUV
Chroma subsampling : 4:2:0
Bit depth : 8 bits
Scan type : Progressive
Compression mode : Lossy
Bits/(Pixel*Frame) : 0.397
Stream size : 1.19 GiB (82%)
Writing library : XviD 1.2.1 (UTC 2008-12-04)
Audio #1
ID : 1
Format : AC-3
Format/Info : Audio Coding 3
Mode extension : CM (complete main)
Codec ID : 2000
Duration : 1h 21mn
Bit rate mode : Constant
Bit rate : 448 Kbps
Channel(s) : 6 channels
Channel positions : Front: L C R, Side: L R, LFE
Sampling rate : 48.0 KHz
Bit depth : 16 bits
Compression mode : Lossy
Stream size : 262 MiB (18%)
Alignment : Split accross interleaves
Interleave, duration : 42 ms (1.00 video frame)
Interleave, preload duration : 500 ms


Релиз Группы "Virtus"

Стол заказов / Вступление в РГ / Благодарности, критика и другое


660aa1ce315ddc6c7c0204b268a3e030dc8df917Коллекционер 2 / The Collection (Маркус Данстэн, ужасы, боевик, триллер , 2012) [HDRip, Профессиональный (полное дублирование)] Коллекционер 2 / The Collection (Маркус Данстэн, ужасы, боевик, триллер , 2012) [HDRip, Профессиональный (полное дублирование)] " />

Аплоадер: Админ, дата: 26-01-2013, 22:08, торрент скачан: 359 раз

Понравилась раздача? Посмотрите эти:
  • Верное дельце / Une pure affaire (Александр Коффре, Боевик, Комедия, Кримин ...
  • Мужество / Wymyk (Грег Зглински, драма, 2011) [DVDRip, Любительский (одного ...
  • Ночь тамплиера / Night of the Templar (Пол Сэмпсон, Ужасы, фантастика, боев ...
  • Звук моего голоса / Sound of My Voice (Зал Батманглидж, триллер, драма, 201 ...
  • 23:59 / 23:59 (Гилберт Чан, Ужасы, 2011) [HDRip, Любительский (одноголосый ...
  • В хлам / Smashed (Джеймс Понсольдт, Драма, комедия, 2012) [HDRip, Профессио ...
  • Коллекционер 2 / The Collection (Маркус Данстэн, Ужасы, боевик, триллер, 20 ...
  • Коллекционер 2 / The Collector (Маркус Данстэн, Ужасы, Боевик, Триллер, 201 ...
  • Экипаж / Flight (Роберт Земекис, Драма, 2012) [BDRip, Профессиональный (пол ...
  • В доме / Dans la maison (Франсуа Озон, Триллер, детектив, 2012) [HDRip, Про ...
  • Захват / Carjacked (Джон Бонито, триллер, 2011)[BDRip, Профессиональный (мн ...
  • Коллекционер 2 / The Collection (Маркус Данстэн, Ужасы, боевик, триллер, 20 ...
  • Коллекционер 2 / The Collection (Маркус Данстэн, ужасы, боевик, триллер, 20 ...
  • Коллекционер 2 / The Collection (Маркус Данстэн, ужасы, боевик, триллер , 2 ...
  • Коллекционер 2 / The Collection (Маркус Данстэн, Ужасы, боевик, триллер, 20 ...
  • Коллекционер 2 / The Collection (Маркус Данстэн, ужасы, боевик, триллер, 20 ...
  • Коллекционер 2 / The Collection (Маркус Данстэн, ужасы, боевик, триллер, 20 ...
  • Tank Feat. T.I. & Kris Stephens / Compliments [2012, RnB,Hip-Hop, HDRip]
  • Супершторм в Сиэтле / Seattle Superstorm (Джейсон Бурк, фантастика, боевик ...
  • [Трейлер] Коллекционер 2 / The Collection (Маркус Данстэн, ужасы, боевик, т ...
  • Информация
    Посетители, находящиеся в группе Гости, не могут оставлять комментарии к данной публикации.