вход на сайт

Имя пользователя :
Пароль :

Восстановление пароля Регистрация
С новым годом, мамы! (Сарик Андреасян, Артем Аксененко, Дмитрий Грачев, Комедия, семейный, 2012) [BDRip, Не требуется]
Рейтинг:
(голосов: 1)



[img]{THEME}/images/logopost.png[/img]



• С новым годом, мамы! •
«Праздничное кино»

Год выпуска: 2012
Страна: Россия
Производство: Enjoy Movies
Жанр: Комедия, семейный

Режиссёр: Сарик Андреасян, Артем Аксененко, Дмитрий Грачев
В ролях: Елизавета Боярская, Максим Матвеев, Павел Воля, Ирина Розанова, Ален Делон, Екатерина Вилкова, Светлана Иванова, Максим Виторган, Константин Крюков, Гарик Харламов

Перевод: Не требуется
Субтитры: Нет

Описание: В новой ленте зрители увидят новые истории и новые приключения новых героев, объединенных одним чувством — любовью к МАМЕ.

5 новелл. Смешные и трогательные, лиричные и комичные — каждая новелла расскажет историю мамы и ребенка, двух самых близких людей на свете. Ведь что бы ни происходило, мама всегда остается тем человеком, который будет любить всегда и несмотря ни на что…Дата премьеры (мир): 27 декабря 2012
Дата премьеры (РФ): 27 декабря 2012, «Каропрокат»

Качество: BDRip |Сэмпл
Продолжительность: 01:24:20


Формат: AVI
Видео кодек: XviD
Аудио кодек: AC3
Видео: 720x304 (2.35:1), 24 fps, XviD 65 ~2015 kbps avg, 0.384 bit/pixel
Аудио: 48 kHz, AC3 Dolby Digital, 3/2 (L,C,R,l,r) + LFE ch, 448.00 kbps Constant

"Mediainfo:" ▼TextGeneral
Complete name : S.novym.godom.mamy.2012.O.BDRip_1,45GB_by_Yarmak.avi
Format : AVI
Format/Info : Audio Video Interleave
File size : 1.46 GiB
Duration : 1h 24mn
Overall bit rate : 2 473 Kbps
Writing application : VirtualDubMod 1.5.10.2 (build 2540/release)
Writing library : VirtualDubMod build 2540/release

Video
ID : 0
Format : MPEG-4 Visual
Format profile : Advanced [email protected]
Format settings, BVOP : 1
Format settings, QPel : No
Format settings, GMC : No warppoints
Format settings, Matrix : Custom
Codec ID : XVID
Codec ID/Hint : XviD
Duration : 1h 24mn
Bit rate : 2 015 Kbps
Width : 720 pixels
Height : 304 pixels
Display aspect ratio : 2.35:1
Frame rate : 24.000 fps
Color space : YUV
Chroma subsampling : 4:2:0
Bit depth : 8 bits
Scan type : Progressive
Compression mode : Lossy
Bits/(Pixel*Frame) : 0.384
Stream size : 1.19 GiB (82%)
Writing library : XviD 65

Audio
ID : 1
Format : AC-3
Format/Info : Audio Coding 3
Mode extension : CM (complete main)
Format settings, Endianness : Big
Codec ID : 2000
Duration : 1h 24mn
Bit rate mode : Constant
Bit rate : 448 Kbps
Channel(s) : 6 channels
Channel positions : Front: L C R, Side: L R, LFE
Sampling rate : 48.0 KHz
Bit depth : 16 bits
Compression mode : Lossy
Stream size : 270 MiB (18%)
Alignment : Split accross interleaves
Interleave, duration : 42 ms (1.00 video frame)
Interleave, preload duration : 500 ms


Релиз Группы "Virtus"

Стол заказов / Вступление в РГ / Благодарности, критика и другое


2343992909994f8f3ad249cbc9702fa2f800450aС новым годом, мамы! (Сарик Андреасян, Артем Аксененко, Дмитрий Грачев, Комедия, семейный, 2012) [BDRip, Не требуется] С новым годом, мамы! (Сарик Андреасян, Артем Аксененко, Дмитрий Грачев, Комедия, семейный, 2012) [BDRip, Не требуется] " />

Аплоадер: Админ, дата: 26-01-2013, 02:32, торрент скачан: 359 раз

Понравилась раздача? Посмотрите эти:
  • Безопасность не гарантируется / Safety Not Guaranteed (Колин Треворроу, фан ...
  • В хлам / Smashed (Джеймс Понсольдт, Драма, комедия, 2012) [HDRip, Профессио ...
  • Муви 43 / Movie 43 (Стивен Брилл, Питер Фаррелли, Элизабет БэнксСтивен, ком ...
  • Ральф / Wreck-It Ralph (Рич Мур, Мультфильм, комедия, семейный, 2012) [BDRi ...
  • [iPhone, iPod] С новым годом, мамы! (Сарик Андреасян, Комедия, Семейный, 20 ...
  • Марко Макако / Marco Macaco (Жан Рабек, мультфильм, комедия, семейный, 2012 ...
  • Весенние надежды / Hope Springs (Дэвид Фрэнкел, Драма, мелодрама, комедия, ...
  • Суперстар / Superstar (Ксавье Джианноли, Драма, комедия, 2012) [HDRip, Проф ...
  • С новым годом, мамы! (Сарик Андреасян, Артем Аксененко, Дмитрий Грачев, Ком ...
  • С новым годом, мамы! (Сарик Андреасян, Артем Аксененко, Дмитрий Грачев, Ком ...
  • С новым годом, мамы! (Сарик Андреасян, Артем Аксененко, Дмитрий Грачев, ко ...
  • С новым годом, мамы! (Сарик Андреасян, Артем Аксененко, Дмитрий Грачев, Ком ...
  • С новым годом, мамы! (Сарик Андреасян, Артем Аксененко, Дмитрий Грачев, Ком ...
  • С новым годом, мамы! (Сарик Андреасян, Артем Аксененко, Дмитрий Грачев, Ком ...
  • С новым годом, мамы! (Сарик Андреасян, Артем Аксененко, Дмитрий Грачев, Кли ...
  • С новым годом, мамы! (Сарик Андреасян, Артем Аксененко, Дмитрий Грачев, ком ...
  • Три богатыря на дальних берегах (Константин Феоктистов, мультфильм, комедия ...
  • С новым годом, мамы! (Сарик Андреасян, Артем Аксененко, Дмитрий Грачев, Ком ...
  • С новым годом, мамы! (Сарик Андреасян, Артем Аксененко, Дмитрий Грачев, ком ...
  • [Тизер] С новым годом, мамы! (Сарик Андреасян, комедия, семейный) [HDTVRip ...
  • Информация
    Посетители, находящиеся в группе Гости, не могут оставлять комментарии к данной публикации.