вход на сайт

Имя пользователя :
Пароль :

Восстановление пароля Регистрация
Последняя искра жизни / La chispa de la vida (Алекс де ла Иглесиа, Драма, 2011) [DVDRip, Профессиональный (многоголосый, закадровый)]
Рейтинг:
(голосов: 1)



[img]{THEME}/images/logopost.png[/img]



• Последняя искра жизни / La chispa de la vida •
«Лучшие новости - плохие новости»

Год выпуска: 2011
Страна: Франция, Испания
Производство: Double Nickel Entertainment, Trivisiуn S.L.
Жанр: Драма

Режиссёр: Алекс де ла Иглесиа
В ролях: Сальма Хайек, Сантьяго Сегура, Начо Вигалондо, Каролина Банг, Антонио де ла Торре, Фернандо Техеро, Бланка Портильо, Хавьер Боте, Гильермо Толедо, Нереа Камачо

Перевод: Профессиональный (многоголосый, закадровый)
Субтитры: Нет

Описание: Безработный пиарщик Роберто пытается устроиться на работу, но его кандидатуру отвергают все агентства. Никого не интересует тот факт, что именно он придумал слоган Кока-колы «Она настоящая». Ситуация резко меняется, когда Роберто попадает в аварию и висит на волоске между жизнью и смертью. Роберто подключает свой опыт в области пиара и превращает аварию в медиа-событие. Он тут же нанимает агента и поручает ему продать эксклюзивные репортажи с места аварии на телеканалы, дабы обеспечить свою семью до конца жизни. Неужели Роберто выживет? Или поплатится жизнью ради денег?Дата премьеры (мир): 30 ноября 2011
Дата премьеры (РФ): 6 декабря 2012, «Кино без границ»

Качество: DVDRip |Сэмпл
Продолжительность: 01:34:29


Формат: AVI
Видео кодек: XviD
Аудио кодек: AC3
Видео: 720x304 (2,35:1), 25.000 fps, XviD build 50 ~1614 kbps avg, 0.295 bit/pixel
Аудио: 48 kHz, AC3 Dolby Digital, 3/2 (L,C,R,l,r) + LFE ch, ~448 kbps

"Mediainfo:" ▼TextGeneral
Format : AVI
Format/Info : Audio Video Interleave
File size : 1.37 GiB
Duration : 1h 34mn
Overall bit rate : 2 071 Kbps
Movie name : Poslednjaja.iskra.zhizni.2011.P.DVDRip.IRONCLUB
Director : IRONCLUB
Genre : Drama
Writing application : VirtualDubMod 1.5.10.3 | www.virtualdub-fr.org || (build 2550/release)
Original source form/Name : Movie
Copyright : http://ironclub.tv/
Video #0
ID : 0
Format : MPEG-4 Visual
Format profile : Advanced [email protected]
Format settings, BVOP : Yes
Format settings, QPel : No
Format settings, GMC : No warppoints
Format settings, Matrix : Custom
Codec ID : XVID
Codec ID/Hint : XviD
Duration : 1h 34mn
Bit rate : 1 614 Kbps
Width : 720 pixels
Height : 304 pixels
Display aspect ratio : 2.35:1
Frame rate : 25.000 fps
Color space : YUV
Chroma subsampling : 4:2:0
Bit depth : 8 bits
Scan type : Progressive
Compression mode : Lossy
Bits/(Pixel*Frame) : 0.295
Stream size : 1.07 GiB (78%)
Writing library : XviD 1.2.1 (UTC 2008-12-04)
Audio #1
ID : 1
Format : AC-3
Format/Info : Audio Coding 3
Mode extension : CM (complete main)
Codec ID : 2000
Duration : 1h 34mn
Bit rate mode : Constant
Bit rate : 448 Kbps
Channel(s) : 6 channels
Channel positions : Front: L C R, Side: L R, LFE
Sampling rate : 48.0 KHz
Bit depth : 16 bits
Compression mode : Lossy
Stream size : 303 MiB (22%)
Alignment : Split accross interleaves
Interleave, duration : 40 ms (1.00 video frame
29f9c7428b8479c1c0e0902347844d8e2318699fПоследняя искра жизни / La chispa de la vida (Алекс де ла Иглесиа, Драма, 2011) [DVDRip, Профессиональный (многоголосый, закадровый)] Последняя искра жизни / La chispa de la vida (Алекс де ла Иглесиа, Драма, 2011) [DVDRip, Профессиональный (многоголосый, закадровый)] " />

Аплоадер: Админ, дата: 25-01-2013, 05:44, торрент скачан: 359 раз

Понравилась раздача? Посмотрите эти:
  • Вирус / Flu (Ким Сон Су, Драма, 2013) [HDTVRip, Любительский (двухголосый з ...
  • Орудие смерти / A-i-deul... (Ли Гю Ман, Триллер, криминал, 2011) [DVDRip, П ...
  • Верное дельце / Une pure affaire (Александр Коффре, Боевик, Комедия, Кримин ...
  • Мои герои / Mes heros (Эрик Беснард, комедия, 2012) [HDRip, Профессиональны ...
  • Мэрайа Мунди и шкатулка Мидаса / The Adventurer: The Curse of the Midas Box ...
  • Мужество / Wymyk (Грег Зглински, драма, 2011) [DVDRip, Любительский (одного ...
  • 42 / 42 (Брайан Хелгеленд, драма, биография, спорт, 2013) [BDRip, Профессио ...
  • Звук моего голоса / Sound of My Voice (Зал Батманглидж, триллер, драма, 201 ...
  • 23:59 / 23:59 (Гилберт Чан, Ужасы, 2011) [HDRip, Любительский (одноголосый ...
  • Любовь на кончиках пальцев / Populaire (Режис Ройнсар, Мелодрама, комедия, ...
  • В хлам / Smashed (Джеймс Понсольдт, Драма, комедия, 2012) [HDRip, Профессио ...
  • Тюремщик / Screwed (Рег Тревисс / Reg Traviss, Драма, 2011) [DVDRip , Люби ...
  • Плохая актриса / Bad Actress (Роберт Ли Кинг, комедия, 2011) [DVDRip, Профе ...
  • Дом ветра (Вячеслав Златопольский, Драма, 2011) [DVDRip, Не требуется]
  • Джефф, живущий дома / Jeff, Who Lives at Home (Джей Дюпласс, Марк Дюпласс, ...
  • Захват / Carjacked (Джон Бонито, триллер, 2011)[BDRip, Профессиональный (мн ...
  • Вишенка на новогоднем торте / La cerise sur le gвteau (Лаура Моранте, Комед ...
  • Последняя искра жизни / La chispa de la vida (Алекс де ла Иглесиа, Драма, 2 ...
  • Танец Дели (Иван Вырыпаев, драма, 2012) [DVDRip, Не требуется]
  • Влюбленные (Валерий Бебко, Комедия, 2011) [DVDRip, Оригинал]
  • Супершторм в Сиэтле / Seattle Superstorm (Джейсон Бурк, фантастика, боевик ...
  • Инкубус / Inkubus (Гленн Чиано, Ужасы, 2011) [DVDRip, Профессиональный (мно ...
  • Девушки в опасности / Damsels in Distress (Уит Стиллман, драма, мелодрама, ...
  • Глаз шторма / The Eye of the Storm (Фред Скеписи, Драма, 2011) [HDRip, Проф ...
  • Табу / Tabu (Мигель Гомеш, Драма, мелодрама, 2012) [DVDRip, Профессиональны ...
  • Информация
    Посетители, находящиеся в группе Гости, не могут оставлять комментарии к данной публикации.