вход на сайт

Имя пользователя :
Пароль :

Восстановление пароля Регистрация
Вишенка на новогоднем торте / La cerise sur le gвteau (Лаура Моранте, Комедия, 2012) [DVDRip, Профессиональный (многоголосый, закадровый)]
Рейтинг:
(голосов: 1)



[img]{THEME}/images/logopost.png[/img]



• Вишенка на новогоднем торте / La cerise sur le gвteau •

Год выпуска: 2012
Страна: Франция
Производство: Maison de Cinema, Soudaine Compagnie, Nuts & Bolts Productions
Жанр: Комедия

Режиссёр: Лаура Моранте
В ролях: Лаура Моранте, Паскаль Элбе, Изабель Карре, Самир Гесми, Патрис Тибо, Фредерик Пьеро, Лусилия Клеман, Эннио Фантастичини, Ванесса Ларре, Жорж Клэсс

Перевод: Профессиональный (многоголосый, закадровый)
Субтитры: Нет

Описание: Аманда уверена — с мужчинами всегда все слишком сложно! Ее подруга считает, что Аманде пора остепениться и сделать, наконец, окончательный выбор, а психоаналитик ставит ей неутешительный диагноз: «Мадам-катастрофа», которая убивает все свои романы, едва они начинают стремиться к обручальным кольцам. Но даже женщина, которая упорно отказывается стать счастливой, не застрахована от случая. Само провидение ставит точку в ее сомнениях, словно кладет последнюю вишенку на торт.Дата премьеры (мир): 25 марта 2012
Дата премьеры (РФ): 20 декабря 2012, «Русский репортаж»

Качество: DVDRip |Сэмпл
Продолжительность: 01:19:46


Формат: AVI
Видео кодек: XviD
Аудио кодек: AC3
Видео: 720x400 (16:9), 25.000 fps, XviD build 50 ~1995 kbps avg, 0.277 bit/pixel
Аудио: 48 kHz, AC3 Dolby Digital, 3/2 (L,C,R,l,r) + LFE ch, ~448 kbps

"Mediainfo:" ▼TextGeneral
Format : AVI
Format/Info : Audio Video Interleave
File size : 1.37 GiB
Duration : 1h 19mn
Overall bit rate : 2 453 Kbps
Movie name : Vishenka.na.novogodnem.torte.2012.P.DVDRip.IRONCLUB
Director : IRONCLUB
Genre : Comedy
Writing application : VirtualDubMod 1.5.10.3 | www.virtualdub-fr.org || (build 2550/release)
Original source form/Name : Movie
Copyright : http://ironclub.tv/
Video #0
ID : 0
Format : MPEG-4 Visual
Format profile : Advanced [email protected]
Format settings, BVOP : Yes
Format settings, QPel : No
Format settings, GMC : No warppoints
Format settings, Matrix : Custom
Codec ID : XVID
Codec ID/Hint : XviD
Duration : 1h 19mn
Bit rate : 1 995 Kbps
Width : 720 pixels
Height : 400 pixels
Display aspect ratio : 16:9
Frame rate : 25.000 fps
Color space : YUV
Chroma subsampling : 4:2:0
Bit depth : 8 bits
Scan type : Progressive
Compression mode : Lossy
Bits/(Pixel*Frame) : 0.277
Stream size : 1.11 GiB (81%)
Writing library : XviD 1.2.1 (UTC 2008-12-04)
Audio #1
ID : 1
Format : AC-3
Format/Info : Audio Coding 3
Mode extension : CM (complete main)
Codec ID : 2000
Duration : 1h 19mn
Bit rate mode : Constant
Bit rate : 448 Kbps
Channel(s) : 6 channels
Channel positions : Front: L C R, Side: L R, LFE
Sampling rate : 48.0 KHz
Bit depth : 16 bits
Compression mode : Lossy
Stream size : 256 MiB (18%)
Alignment : Split accross interleaves
Interleave, duration : 40 ms (1.00 video frame)
Interleave, preload duration : 500 ms


Релиз Группы "Virtus"

Стол заказов / Вступлени
8ade33c10cb8960875e2cd05add33d7ce9d5a7bcВишенка на новогоднем торте / La cerise sur le gвteau (Лаура Моранте, Комедия, 2012) [DVDRip, Профессиональный (многоголосый, закадровый)] Вишенка на новогоднем торте / La cerise sur le gвteau (Лаура Моранте, Комедия, 2012) [DVDRip, Профессиональный (многоголосый, закадровый)] " />

Аплоадер: Админ, дата: 25-01-2013, 05:12, торрент скачан: 359 раз

Понравилась раздача? Посмотрите эти:
  • Орудие смерти / A-i-deul... (Ли Гю Ман, Триллер, криминал, 2011) [DVDRip, П ...
  • Мои герои / Mes heros (Эрик Беснард, комедия, 2012) [HDRip, Профессиональны ...
  • Мужество / Wymyk (Грег Зглински, драма, 2011) [DVDRip, Любительский (одного ...
  • Решала (Роман Асхаев, Драма,Криминал, 2012) [WEB-DLRip, Не требуется]
  • Слепой поворот / Blind Turn (Роберт Орр, Триллер, драма, детектив, 2012) [W ...
  • Любовь на кончиках пальцев / Populaire (Режис Ройнсар, Мелодрама, комедия, ...
  • Любовь на кончиках пальцев / Populaire (Режис Ройнсар, Мелодрама, комедия, ...
  • В хлам / Smashed (Джеймс Понсольдт, Драма, комедия, 2012) [HDRip, Профессио ...
  • Магазин самоубийств / Le magasin des suicides (Патрис Леконт, мультфильм, м ...
  • Магазин самоубийств / Le magasin des suicides (Патрис Леконт, Мультфильм, м ...
  • Плохая актриса / Bad Actress (Роберт Ли Кинг, комедия, 2011) [DVDRip, Профе ...
  • Дом ветра (Вячеслав Златопольский, Драма, 2011) [DVDRip, Не требуется]
  • Супер циклон / Super Cyclone (Лиз Адамс / Liz Adams, боевик, 2012) [HDRip, ...
  • Захват / Carjacked (Джон Бонито, триллер, 2011)[BDRip, Профессиональный (мн ...
  • Влюбленные (Валерий Бебко, Комедия, 2011) [DVDRip, Оригинал]
  • Супершторм в Сиэтле / Seattle Superstorm (Джейсон Бурк, фантастика, боевик ...
  • Олимпиада 2012 / Женщины, Мужчины / Плавание / Квалификация / НТВ+ [30.07.2 ...
  • Инкубус / Inkubus (Гленн Чиано, Ужасы, 2011) [DVDRip, Профессиональный (мно ...
  • За гранью / Beyond (Йозеф Руснак, триллер, 2012) [HDRip, Профессиональный ...
  • Табу / Tabu (Мигель Гомеш, Драма, мелодрама, 2012) [DVDRip, Профессиональны ...
  • Информация
    Посетители, находящиеся в группе Гости, не могут оставлять комментарии к данной публикации.