вход на сайт

Имя пользователя :
Пароль :

Восстановление пароля Регистрация
Побег / Flukt (Роар Утхауг, боевик, 2012) [DVDRip-AVC, Любительский (одноголосый закадровый) Вячеслав Замез]
Рейтинг:
(голосов: 1)



[img]{THEME}/images/logopost.png[/img]



Побег / Flukt

Год выпуска: 2012
Страна: Норвегия
Производство: Film Fund FUZZ, Fantefilm
Жанр: боевик

Режиссёр: Роар Утхауг
В ролях: Изабель Кристин Андерсен, Ингрид Болсай Бердал, Кристиан Эспедаль, Гаал, Халлвард Холмен, Бьорн Моан, Милла Олин, Ирен Реппен, Ейрик Холден Ротейм, Ганс Джейкоб Сэнд

Перевод: Любительский (одноголосый закадровый) Вячеслав Замез
Субтитры: Отсутствуют

Описание: Норвегия, 1363 год. После страшной эпидемии Великой Чумы, бушевавшей более десяти лет и унесшей жизни около половины населения страны, семья бедных крестьян отправляется на поиски лучшей жизни. Во время путешествия по горам они подвергаются нападению хищных и безжалостных бандитов, которые уводят в плен молодую девятнадцатилетнюю девушку Сигне. Оказавшись в лагере разбойников, Сигне понимает, что ей уготована судьба не многим лучшая, чем смерть. И что сейчас единственное для нее спасение заключается в бегстве.





Качество: DVDRip-AVC
Продолжительность: 01:18:21

Формат: MKV
Видео кодек: x.264
Аудио кодек: AC3
Видео: x.264 / [email protected] / 2.40:1 / 2198 kbps / 25.00 fps / 0.285 bit/pixel
Аудио: 48 kHz, AC3 Dolby Digital, 3/2 (L,C,R,l,r) + LFE ch, ~448.00 kbps avg

Премьера (мир): 20 сентября 2012
Премьера (РФ): 16 мая 2013, «Русский репортаж»

Media Info ▼Общее
Полное имя :Flukt.DVDRip-AVC.2012.mkv
Формат : Matroska
Версия формата : Version 4 / Version 2
Размер файла : 1,45 Гбайт
Продолжительность : 1 ч. 18 м.
Общий поток : 2645 Кбит/сек
Дата кодирования : UTC 2013-02-20 15:18:02
Программа кодирования : mkvmerge v6.0.0 (Coming Up For Air) built on Jan 20 2013 09:52:00
Библиотека кодирования : libebml v1.3.0 + libmatroska v1.4.0

Видео
Идентификатор : 1
Формат : AVC
Формат/Информация : Advanced Video Codec
Профиль формата : [email protected]
Параметр CABAC формата : Да
Параметр ReFrames формата : 10 кадров
Идентификатор кодека : V_MPEG4/ISO/AVC
Продолжительность : 1 ч. 18 м.
Битрейт : 2198 Кбит/сек
Ширина : 720 пикселей
Высота : 428 пикселей
Соотношение сторон : 2,40:1
Режим частоты кадров : Постоянный
Частота кадров : 25,000 кадров/сек
Цветовое пространство : YUV
Субдискретизация насыщенности : 4:2:0
Битовая глубина : 8 бит
Тип развёртки : Прогрессивная
Бит/(Пиксели*Кадры) : 0.285
Размер потока : 1,17 Гбайт (81%)
Библиотека кодирования : x264 core 129 r2245 bc13772
Настройки программы : cabac=1 / ref=10 / deblock=1:-2:-1 / analyse=0x3:0x133 / me=umh / subme=9 / psy=1 / psy_rd=1.10:0.10 / mixed_ref=1 / me_range=32 / chroma_me=1 / trellis=2 / 8x8dct=1 / cqm=0 / deadzone=21,11 / fast_pskip=0 / chroma_qp_offset=-3 / threads=12 / lookahead_threads=2 / sliced_threads=0 / nr=0 / decimate=1 / interlaced=0 / bluray_compat=0 / constrained_intra=0 / bframes=9 / b_pyramid=2 / b_adapt=2 / b_bias=0 / direct=3 / weightb=1 / open_gop=0 / weightp=2 / keyint=250 / keyint_min=25 / scenecut=40 / intra_refresh=0 / rc=2pass / mbtree=0 / bitrate=2198 / ratetol=1.0 / qcomp=0.60 / qpmin=0 / qpmax=69 / qpstep=4 / cplxblur=20.0 / qblur=0.5 / ip_ratio=1.40 / pb_ratio=1.30 / aq=1:0.80
Язык : English
Default : Да
Forced : Нет

Аудио
Идентификатор : 2
Формат : AC-3
Формат/Информация : Audio Coding 3
Расширение режима : CM (complete main)
Параметр Endianness формата : Big
Идентификатор кодека : A_AC3
Продолжительность : 1 ч. 18 м.
Вид битрейта : Постоянный
Битрейт : 448 Кбит/сек
Каналы : 6 каналов
Расположение каналов : Front: L C R, Side: L R, LFE
Частота : 48,0 КГц
Битовая глубина : 16 бит
Метод сжатия : С потерями
Размер потока : 251 Мбайт (17%)
Язык : Russian
Default : Да
Forced : Нет

Меню
00:00:00.000 : :Chapter 01
00:06:36.960 : :Chapter 02
00:12:37.440 : :Chapter 03
00:21:42.720 : :Chapter 04
00:29:08.640 : :Chapter 05
00:37:19.200 : :Chapter 06
00:43:46.080 : :Chapter 07
00:48:28.800 : :Chapter 08
00:58:15.840 : :Chapter 09
01:04:13.920 : :Chapter 10
01:10:47.040 : :Chapter 11
01:13:27.840 : :Chapter 12
01:18:21.56
b079f3a66a844645f95e5395cd923713b0239c44Побег / Flukt (Роар Утхауг, боевик, 2012) [DVDRip-AVC, Любительский (одноголосый закадровый) Вячеслав Замез] Побег / Flukt (Роар Утхауг, боевик, 2012) [DVDRip-AVC, Любительский (одноголосый закадровый) Вячеслав Замез] " />

Аплоадер: Админ, дата: 21-02-2013, 17:47, торрент скачан: 359 раз

Понравилась раздача? Посмотрите эти:
  • Погнали! / Getaway (Кортни Соломон, боевик, криминал, 2013) [BDRip 1080p, П ...
  • 21 и больше / 21 & Over (Джон Лукас, Скотт Мур, Комедия, 2013) [BD-Remux 10 ...
  • Поймай толстуху, если сможешь [Театральная версия] / Identity Thief [Theatr ...
  • Астрал на улице Арлетт / 388 Arletta Avenue (Рэндолл Коул, Триллер, 2011) [ ...
  • Рикошет / Ricochet (Ник Гомез, драма, детектив, 2011) [BDRip-AVC, Профессио ...
  • Кровью и потом: Анаболики / Pain & Gain (Майкл Бэй, криминал, комедия, трил ...
  • Королевство кривых зеркал (Александр Роу, фэнтези, семейный, 1963) [BDRip-A ...
  • Джек Ричер / Jack Reacher (Кристофер МакКуорри, Боевик,триллер, криминал, д ...
  • Убей ради меня / Kill for Me (Майкл Гринспен, триллер, драма, 2013) [DVDRip ...
  • Суррогат / The Sessions (Бен Луин, Драма, 2012) [BDRip-AVC, Профессиональны ...
  • Игровая комната / The Playroom (Джулия Дайер, драма, 2012) [HDRip, Оригинал ...
  • Побег / Flukt (Роар Утхауг, боевик, 2012) [DVDRip, Любительский (одноголосы ...
  • Чемпионат Англии 2012-2013 / 25-й тур / Обзор / Суббота / BBC Sport [2013 г ...
  • Челюсти 3D / Shark Night 3D ( Дэвид Р. Эллис, ужасы, 2011) [BDRip-AVC, Проф ...
  • Иностранный легион / La cité (Ким Нгуйен / Kim Nguyen, драма, 2010) [DVDRip ...
  • Полководцы / Tau ming chong (Питер Чан, Вэй мэн Йип, боевик, драма, военный ...
  • Тормоз / Brake (Гейб Торрес, триллер, криминал, 2011) [HDRip-AVC, Профессио ...
  • ДухLess (Роман Прыгунов, Драма, 2012) [BDRip-AVC, Не требуется]
  • Цель жизни /Lyaksha (Фархан Ахтар, мелодрама, 2004) [DVDRip, Многоголосый ...
  • Облачный атлас / Cloud Atlas (Лана Вачовски, Том Тыквер, Энди Вачовски, фан ...
  • День учителя (Сергей Мокрицкий, драма, 2012) [DVDRip-AVC, Не требуется]
  • Рейдер (Всеволод Аравин, драма, криминал, 2011) [BDRip 720p, оригинал]
  • Маугли (Роман Давыдов, мультфильм, приключения, семейный, 1973) [BDRip 720p ...
  • Супер Майк / Magic Mike (Стивен Содерберг, Драма, комедия, 2012) [BD-Remux ...
  • Блиндаж // Эпизоды с 1 по 4 (из 4) (драма, военный, 2011) [DVDRip-AVC, Не т ...
  • Информация
    Посетители, находящиеся в группе Гости, не могут оставлять комментарии к данной публикации.