вход на сайт

Имя пользователя :
Пароль :

Восстановление пароля Регистрация
Суперстар / Superstar (Ксавье Джианноли, Драма, комедия, 2012) [HDRip, Профессиональный (многоголосый, закадровый)]
Рейтинг:
(голосов: 1)



[img]{THEME}/images/logopost.png[/img]



• Суперстар / Superstar •
«Ты кто такой?»

Год выпуска: 2012
Страна: Франция, Бельгия
Производство: Rectangle Productions, Wild Bunch, Studio 37
Жанр: Драма, комедия

Режиссёр: Ксавье Джианноли
В ролях: Кад Мерад, Сесиль Де Франс, Луи-До де Ланкесэ, Седрик Бен Абдулла, Альберто Сорбелли, Фридерик Буаморо, Пьер Диот, Кристоф Курочкин, Стефан Войтович, Гарба Тункара

Перевод: Профессиональный (многоголосый, закадровый)
Субтитры: Нет

Описание: В один странный день самый заурядный, маленький-премаленький, «банальный» холостяк, работающий в конторе по утилизации компьютеров, — вдруг беспричинно становится знаменитостью: с месье Казинским мечтает сфотографироваться каждый встречный, YouTube лопается от роликов с его участием, сам же «суперстар поневоле» сходит с ума от свалившейся не иначе, как с неба, популярности…Дата премьеры (мир): 29 августа 2012
Дата премьеры (РФ): 27 декабря 2012, «Премиум Фильм»

Качество: HDRip |Сэмпл
Продолжительность: 01:52:48


Формат: AVI
Видео кодек: XviD
Аудио кодек: AC3
Видео: 720x304 (2,35:1), 23.976 fps, XviD build 50 ~1397 kbps avg, 0.266 bit/pixel
Аудио: 48 kHz, AC3 Dolby Digital, 3/2 (L,C,R,l,r) + LFE ch, ~448.00 kbps avg


"Mediainfo:" ▼TextGeneral
Format : AVI
Format/Info : Audio Video Interleave
File size : 1.46 GiB
Duration : 1h 52mn
Overall bit rate : 1 854 Kbps
Writing application : VirtualDubMod 1.5.10.2 (build 2540/release)
Writing library : VirtualDubMod build 2540/release

Video
ID : 0
Format : MPEG-4 Visual
Format profile : Advanced [email protected]
Format settings, BVOP : 2
Format settings, QPel : No
Format settings, GMC : No warppoints
Format settings, Matrix : Custom
Codec ID : XVID
Codec ID/Hint : XviD
Duration : 1h 52mn
Bit rate : 1 397 Kbps
Width : 720 pixels
Height : 304 pixels
Display aspect ratio : 2.35:1
Frame rate : 23.976 fps
Color space : YUV
Chroma subsampling : 4:2:0
Bit depth : 8 bits
Scan type : Progressive
Compression mode : Lossy
Bits/(Pixel*Frame) : 0.266
Stream size : 1.10 GiB (75%)
Writing library : XviD 1.2.1 (UTC 2008-12-04)

Audio
ID : 1
Format : AC-3
Format/Info : Audio Coding 3
Mode extension : CM (complete main)
Format settings, Endianness : Big
Codec ID : 2000
Duration : 1h 52mn
Bit rate mode : Constant
Bit rate : 448 Kbps
Channel(s) : 6 channels
Channel positions : Front: L C R, Side: L R, LFE
Sampling rate : 48.0 KHz
Bit depth : 16 bits
Compression mode : Lossy
Stream size : 361 MiB (24%)
Alignment : Split accross interleaves
Interleave, duration : 42 ms (1.00 video frame)
Interleave, preload duration : 500 ms


Релиз Группы "Virtus"

Стол заказов / Вступление в РГ / Благодарности, критика и другое


2d502f78495f6f677a59df247550d74277225f50Суперстар / Superstar (Ксавье Джианноли, Драма, комедия, 2012) [HDRip, Профессиональный (многоголосый, закадровый)] Суперстар / Superstar (Ксавье Джианноли, Драма, комедия, 2012) [HDRip, Профессиональный (многоголосый, закадровый)] " />

Аплоадер: Админ, дата: 20-02-2013, 02:16, торрент скачан: 359 раз

Понравилась раздача? Посмотрите эти:
  • Погнали! / Getaway (Кортни Соломон, Боевик, Криминал, 2013) [HDRip, Професс ...
  • Верное дельце / Une pure affaire (Александр Коффре, Боевик, Комедия, Кримин ...
  • Мои герои / Mes heros (Эрик Беснард, комедия, 2012) [HDRip, Профессиональны ...
  • 42 / 42 (Брайан Хелгеленд, драма, биография, спорт, 2013) [BDRip, Профессио ...
  • Сломленные / Broken (Руфус Норрис, драма, 2012) [HDRip, Профессиональный (м ...
  • Любовь на кончиках пальцев / Populaire (Режис Ройнсар, Мелодрама, комедия, ...
  • Безопасность не гарантируется / Safety Not Guaranteed (Колин Треворроу, фан ...
  • Любовь на кончиках пальцев / Populaire (Режис Ройнсар, Мелодрама, комедия, ...
  • В хлам / Smashed (Джеймс Понсольдт, Драма, комедия, 2012) [HDRip, Профессио ...
  • Магазин самоубийств / Le magasin des suicides (Патрис Леконт, мультфильм, м ...
  • Суперстар / Superstar (Ксавье Джианноли, Драма, комедия, 2012) [HDRip, Проф ...
  • Суперстар / Superstar (Ксавье Джианноли, Драма, комедия, 2012) [HDRip-AVC, ...
  • Суперстар / Superstar (Ксавье Джианноли, Драма, комедия, 2012) [HDRip, Проф ...
  • Простые истины / Straight As (Джеймс Кокс, драма, комедия, 2013) [HDRip, П ...
  • Джефф, живущий дома / Jeff, Who Lives at Home (Джей Дюпласс, Марк Дюпласс, ...
  • Доля ангелов / The Angels Share (Кен Лоуч, драма, комедия, 2012) [HDRip, Пр ...
  • Джефф, живущий дома / Jeff, Who Lives at Home (Джей Дюпласс, Марк Дюпласс, ...
  • Супер циклон / Super Cyclone (Лиз Адамс / Liz Adams, боевик, 2012) [HDRip, ...
  • Захват / Carjacked (Джон Бонито, триллер, 2011)[BDRip, Профессиональный (мн ...
  • Последний отпуск / Last Holiday (Уэйн Ван, Драма, комедия, приключения, 200 ...
  • Супершторм в Сиэтле / Seattle Superstorm (Джейсон Бурк, фантастика, боевик ...
  • Три балбеса / The Three Stooges (Бобби Фаррелли, Питер Фаррелли, Комедия, 2 ...
  • Девушки в опасности / Damsels in Distress (Уит Стиллман, драма, мелодрама, ...
  • Глаз шторма / The Eye of the Storm (Фред Скеписи, Драма, 2011) [HDRip, Проф ...
  • За гранью / Beyond (Йозеф Руснак, триллер, 2012) [HDRip, Профессиональный ...
  • Информация
    Посетители, находящиеся в группе Гости, не могут оставлять комментарии к данной публикации.