вход на сайт

Имя пользователя :
Пароль :

Восстановление пароля Регистрация
Весенние надежды / Hope Springs (Дэвид Фрэнкел, Драма, мелодрама, комедия, 2012) [BDRip, Профессиональный (полное дублирование)]
Рейтинг:
(голосов: 1)



[img]{THEME}/images/logopost.png[/img]



• Весенние Надежды / Hope Springs •
«Чтобы сохранить отношения, надо научиться нескольким трюкам»

Год выпуска: 2012
Страна: США
Производство: Escape Artists, Management 360, Mandate Pictures, Tomkats Catering
Жанр: Драма, мелодрама, комедия

Режиссёр: Дэвид Фрэнкел
В ролях: Мэрил Стрип, Томми Ли Джонс, Стив Карелл, Джин Смарт, Бен Раппапорт, Марин Айрлэнд, Патрик Дарро, Бретт Райс, Бекки Энн Бэйкер, Элизабет Шу

Перевод: Профессиональный (полное дублирование)
Субтитры: Нет

Описание: Главные герои фильма — супружеская пара, находящаяся в браке более 30 лет и пытающаяся при помощи доктора Фелда, занимающегося проблемами семейных союзов, разжечь угасшие отношения.Дата премьеры (мир): 8 августа 2012
Дата премьеры (РФ): 13 декабря 2012, «West»

Качество: BDRip |Сэмпл
Продолжительность: 01:39:57


Формат: AVI
Видео кодек: XviD
Аудио кодек: AC3
Видео: 720x400 (16:9), 24.000 fps, XviD build 65 ~1693 kbps avg, 0.245 bit/pixel
Аудио#1: 48 kHz, AC3 Dolby Digital, 3/2 (L,C,R,l,r) + LFE ch, ~384.00 kbps avg


"Mediainfo:" ▼TextGeneral
Format : AVI
Format/Info : Audio Video Interleave
File size : 1.46 GiB
Duration : 1h 39mn
Overall bit rate : 2 086 Kbps
Writing application : VirtualDubMod 1.5.10.3 | www.virtualdub-fr.org || (build 2550/release)
Writing library : VirtualDubMod build 2550/release
Video #0
ID : 0
Format : MPEG-4 Visual
Format profile : Advanced [email protected]
Format settings, BVOP : Yes
Format settings, QPel : No
Format settings, GMC : No warppoints
Format settings, Matrix : Custom
Codec ID : XVID
Codec ID/Hint : XviD
Duration : 1h 39mn
Bit rate : 1 693 Kbps
Width : 720 pixels
Height : 400 pixels
Display aspect ratio : 16:9
Frame rate : 24.000 fps
Color space : YUV
Chroma subsampling : 4:2:0
Bit depth : 8 bits
Scan type : Progressive
Compression mode : Lossy
Bits/(Pixel*Frame) : 0.245
Stream size : 1.18 GiB (81%)
Writing library : XviD 64
Audio #1
ID : 1
Format : AC-3
Format/Info : Audio Coding 3
Mode extension : CM (complete main)
Codec ID : 2000
Duration : 1h 39mn
Bit rate mode : Constant
Bit rate : 384 Kbps
Channel(s) : 6 channels
Channel positions : Front: L C R, Side: L R, LFE
Sampling rate : 48.0 KHz
Bit depth : 16 bits
Compression mode : Lossy
Stream size : 275 MiB (18%)
Alignment : Split accross interleaves
Interleave, duration : 42 ms (1.00 video frame)
Interleave, preload duration : 500 ms


Релиз Группы "Virtus"

Стол заказов / Вступление в РГ / Благодарности, критика и другое


c9624fa2dc51dea8da883d3d25632b3af336adb5Весенние надежды / Hope Springs (Дэвид Фрэнкел, Драма, мелодрама, комедия, 2012) [BDRip, Профессиональный (полное дублирование)] Весенние надежды / Hope Springs (Дэвид Фрэнкел, Драма, мелодрама, комедия, 2012) [BDRip, Профессиональный (полное дублирование)] " />

Аплоадер: Админ, дата: 19-02-2013, 13:40, торрент скачан: 359 раз

Понравилась раздача? Посмотрите эти:
  • Вирус / Flu (Ким Сон Су, Драма, 2013) [HDTVRip, Любительский (двухголосый з ...
  • Мои герои / Mes heros (Эрик Беснард, комедия, 2012) [HDRip, Профессиональны ...
  • Мужество / Wymyk (Грег Зглински, драма, 2011) [DVDRip, Любительский (одного ...
  • Весенние надежды / Hope Springs (Дэвид Фрэнкел, драма, мелодрама, комедия, ...
  • МЫ. Верим в любовь / W.E. (Мадонна, Драма, мелодрама, история, 2011) [BDRip ...
  • Большие Надежды / Great Expectations (Майк Ньюэлл, драма, 2012) [BDRip, Дуб ...
  • Весенние надежды / Hope Springs (Дэвид Фрэнкел, Драма, Мелодрама, Комедия, ...
  • Любовь на кончиках пальцев / Populaire (Режис Ройнсар, Мелодрама, комедия, ...
  • В хлам / Smashed (Джеймс Понсольдт, Драма, комедия, 2012) [HDRip, Профессио ...
  • Мужчина нарасхват / Playing for Keeps (Габриэле Муччино, Мелодрама, комедия ...
  • Весенние надежды / Hope Springs (Дэвид Фрэнкел, драма, мелодрама, комедия, ...
  • Муви 43 / Movie 43 (Стивен Брилл, Питер Фаррелли, Элизабет БэнксСтивен, ком ...
  • Муви 43 / Movie 43 (Стивен Брилл, Питер Фаррелли, Элизабет БэнксСтивен, ком ...
  • Весенние надежды / Hope Springs (Дэвид Фрэнкел, Драма, мелодрама, комедия, ...
  • Весенние надежды / Hope Springs (Дэвид Фрэнкел, драма, мелодрама, комедия, ...
  • Весенние надежды / Hope Springs (Дэвид Фрэнкел, драма, мелодрама, комедия, ...
  • Покорители Волн / Chasing Mavericks (Майкл Эптед, Кёртис Хэнсон, Драма, спо ...
  • Экипаж / Flight (Роберт Земекис, Драма, 2012) [BDRip, Профессиональный (пол ...
  • Весенние надежды / Hope Springs (Дэвид Фрэнкел, Драма, мелодрама, комедия, ...
  • Весенние надежды / Hope Springs (Дэвид Фрэнкел, Драма, мелодрама, комедия, ...
  • Тюремщик / Screwed (Рег Тревисс / Reg Traviss, Драма, 2011) [DVDRip , Люби ...
  • Захват / Carjacked (Джон Бонито, триллер, 2011)[BDRip, Профессиональный (мн ...
  • Коллекционер 2 / The Collection (Маркус Данстэн, ужасы, боевик, триллер , 2 ...
  • Девушки в опасности / Damsels in Distress (Уит Стиллман, драма, мелодрама, ...
  • [EN] Весенние надежды / Hope Springs (Дэвид Фрэнкел, драма, мелодрама, коме ...
  • Информация
    Посетители, находящиеся в группе Гости, не могут оставлять комментарии к данной публикации.