вход на сайт

Имя пользователя :
Пароль :

Восстановление пароля Регистрация
Марко Макако / Marco Macaco (Жан Рабек, мультфильм, комедия, семейный, 2012) [BDRip, Дубляж]
Рейтинг:
(голосов: 1)



[img]{THEME}/images/logopost.png[/img]



•Марко Макако / Marco Macaco •
«Даёшь бананы!»
♥ Год выпуска: 2012
♥ Страна: Дания
♥ Производство: Nice Ninja Productions
♥ Жанр: мультфильм, комедия, семейный

♥ Режиссёр: Жан Рабек
♥ В ролях: Токе Бьярке, Милле Лефельдт, Руне Толсгаард, Джесс Ингерслев

♥ Перевод: Дубляж
♥ Субтитры: Отсутствуют
♥ Описание: Марко Макако работает пляжным охранником на тропическом острове. Он верой и правдой служит своему боссу, мечтая лишь об одном — раскрыть серьезное преступление. Марко проводит собственные расследования по любому поводу и поднимает шумиху по пустякам. Однако вскоре ему по-настоящему повезет: завоевывая расположение красавицы Лулу, Марко раскроет коварный заговор богача Карло, вознамерившегося стать боссом.



♥ Качество: BDRip | исх. Blu-Ray.IRONCLUB
♥ Продолжительность: 01:15:47 час.

♥ Формат: AVI
♥ Видео кодек: XviD
♥ Аудио кодек: AC3
♥ Видео: 720x384 (1.875), 24 fps, XviD build 50 ~2 125 kbps avg, 0.320 bit/pixel
♥ Аудио1: 48 kHz, AC3 Dolby Digital, 3/2 (L,C,R,l,r) + LFE ch, ~448 kbps
♥ Дата премьеры (мир): 11 октября 2012
♥ Дата премьеры (РФ): 27 декабря 2012, «Люксор»
MediaInfo: ▼
TextGeneral
Complete name : C:Marco.Macaco.2012.D.BDRip.avi
Format : AVI
Format/Info : Audio Video Interleave
File size : 1.37 GiB
Duration : 1h 15mn
Overall bit rate : 2 582 Kbps
Movie name : Marco.Macaco.2012.D.BDRip.
Director : IRONCLUB
Genre : Animation | Comedy | Family
Writing application : VirtualDubMod 1.5.10.3 | www.virtualdub-fr.org || (build 2550/release)
Original source form/Name : Cartoon
Video #0
ID : 0
Format : MPEG-4 Visual
Format profile : Advanced [email protected]
Format settings, BVOP : 1
Format settings, QPel : No
Format settings, GMC : No warppoints
Format settings, Matrix : Custom
Codec ID : XVID
Codec ID/Hint : XviD
Duration : 1h 15mn
Bit rate : 2 125 Kbps
Width : 720 pixels
Height : 384 pixels
Display aspect ratio : 1.875
Frame rate : 24.000 fps
Color space : YUV
Chroma subsampling : 4:2:0
Bit depth : 8 bits
Scan type : Progressive
Compression mode : Lossy
Bits/(Pixel*Frame) : 0.320
Stream size : 1.12 GiB (82%)
Writing library : XviD 1.2.1 (UTC 2008-12-04)
Audio #1
ID : 1
Format : AC-3
Format/Info : Audio Coding 3
Mode extension : CM (complete main)
Codec ID : 2000
Duration : 1h 15mn
Bit rate mode : Constant
Bit rate : 448 Kbps
Channel(s) : 6 channels
Channel positions : Front: L C R, Side: L R, LFE
Sampling rate : 48.0 KHz
Bit depth : 16 bits
Compression mode : Lossy
Stream size : 243 MiB (17%)
Alignment : Split accross interleaves
Interleave, duration : 42 ms (1.00 video frame)
Interleave, preload duration : 500 ms
Релиз Группы "Virtus"

Стол заказов / Вступление в РГ / Благодарности, критика и другое



e7e6ad8e1b9aa3a2be190f348b24156584837789Марко Макако / Marco Macaco (Жан Рабек, мультфильм, комедия, семейный, 2012) [BDRip, Дубляж] Марко Макако / Marco Macaco (Жан Рабек, мультфильм, комедия, семейный, 2012) [BDRip, Дубляж] " />

Аплоадер: Админ, дата: 15-02-2013, 22:31, торрент скачан: 359 раз

Понравилась раздача? Посмотрите эти:
  • Мои герои / Mes heros (Эрик Беснард, комедия, 2012) [HDRip, Профессиональны ...
  • Поймай толстуху, если сможешь [Театральная версия] / Identity Thief [Theatr ...
  • Реальные Парни / Stand Up Guys (Фишер Стивенс, драма, комедия, криминал, 20 ...
  • Большие Надежды / Great Expectations (Майк Ньюэлл, драма, 2012) [BDRip, Дуб ...
  • В хлам / Smashed (Джеймс Понсольдт, Драма, комедия, 2012) [HDRip, Профессио ...
  • Скуби-Ду! Маска Синего Сокола / Scooby-Doo! Mask Of The Blue Falcon (Оливье ...
  • Диномама 3D / Dino Time (Юн-сок Чхве, Джон Кафка, мультфильм, комедия, прик ...
  • Марко Макако / Marco Macaco (Жан Рабек, Мультфильм, комедия, семейный, 2012 ...
  • Весенние надежды / Hope Springs (Дэвид Фрэнкел, Драма, мелодрама, комедия, ...
  • Марко Макако / Marco Macaco (Жан Рабек, Мультфильм, комедия, семейный, 2012 ...
  • Экипаж / Flight (Роберт Земекис, Драма, 2012) [BDRip, Профессиональный (пол ...
  • Монстры на каникулах / Hotel Transylvania (Генндий Тартаковский, мультфильм ...
  • Марко Макако / Marco Macaco (Жан Рабек, Мультфильм, комедия, семейный, 2012 ...
  • Марко Макако / Marco Macaco (Жан Рабек, Мультфильм, комедия, семейный, 2012 ...
  • Захват / Carjacked (Джон Бонито, триллер, 2011)[BDRip, Профессиональный (мн ...
  • Чемпионат Европы 2012 / Группа C / 1-й тур / Ирландия — Хорватия / ТРК Футб ...
  • Tank Feat. T.I. & Kris Stephens / Compliments [2012, RnB,Hip-Hop, HDRip]
  • Марко Макако / Marco Macaco (Жан Рабек, мультфильм, комедия, семейный, 2012 ...
  • Мулан 2 / Mulan II (Даррел Руни, Линн Сауферлэнд, мультфильм, мюзикл, боеви ...
  • Марко Макако / Marco Macaco (Жан Рабек, Мультфильм, комедия, семейный, 2012 ...
  • Три богатыря на дальних берегах (Константин Феоктистов, мультфильм, комедия ...
  • Холостячки / Bachelorette (Лесли Хэдланд, комедия, 2012) [HDRip, Дубляж]
  • Влюбленные (Валерий Бебко, Комедия, 2011) [DVDRip, Оригинал]
  • Планета сокровищ / Treasure Planet (Рон Клементс, Джон Маскер, Мультфильм, ...
  • Олимпиада 2012 / Женщины, Мужчины / Плавание / Квалификация / НТВ+ [30.07.2 ...
  • Информация
    Посетители, находящиеся в группе Гости, не могут оставлять комментарии к данной публикации.