вход на сайт

Имя пользователя :
Пароль :

Восстановление пароля Регистрация
Храбрый плавник / Back to the Sea (Том Лу, Мультфильм, 2012) [ВDRip-AVC, Дубляж]
Рейтинг:
(голосов: 1)



[img]{THEME}/images/logopost.png[/img]



• Храбрый плавник / Back to the Sea •
«Приключения начинаются!»

♥ Год выпуска: 2012
♥ Страна: Китай, Канада
♥ Производство: Glory and Dream Studios, IndustryWorks Pictures
♥ Жанр: Мультфильм

♥ Режиссёр: Том Лу
♥ В ролях: Tим Карри, Марк Хэмилл, Том Кенни, Кристиан Слэйтер, Кэт Сауси, Мэттью Кинг

♥ Перевод: Дубляж
♥ Субтитры: Нет

♥ Описание:
В прибрежных водах Нью-Йорка живет Кевин — маленькая летучая рыбка. Каждый день Кевин играет со своими друзьями и мечтает попасть на остров Барбадос, в королевство летучих рыб, но его родители считают эти мечты глупыми. Однажды, чтобы похвастаться, он отправляется к подводной Скале Славы, достать фамильную реликвию семьи — огромную жемчужину, и попадает в рыболовные сети. Кевин вместе с драгоценностью отправляется в аквариум рыбного ресторанчика, где его ждет страшная судьба — стать изысканным деликатесом. Другие обитатели аквариума верят в то, что исчезающие рыбы становятся людьми, поэтому ждут с нетерпением, когда за ними придут. Для того, чтобы спасти своих новых друзей от смерти и вернуться домой с фамильной жемчужиной, Кевину предстоит показать всю свою храбрость.♥ Дата премьеры (мир): 27 января 2012
♥ Дата премьеры (РФ): 24 января 2013, «Кинопром»

♥ Качество: ВDRip-AVC
♥ Продолжительность: 01:37:37

♥ Формат: MKV
♥ Видео кодек: AVC
♥ Аудио кодек: АС3
♥ Видео: 1280x536 (2,40:1), 23.976 fps, AVC ~2500 kbps avg, 0.152 bit/pixel
♥ Аудио: 48 kHz, AC3, 6 ch, ~640.00 kbps avg

"MediaInfo:" ▼
TextGeneral
Unique ID : 240026004676454878476313106034868823627 (0xB49353B535DDD4E6938C36E18E13264B)
Complete name : Back.to.the.Sea.2012.720p.BluRay.DD5.1.x264.mkv
Format : Matroska
Format version : Version 2
File size : 2.14 GiB
Duration : 1h 37mn
Overall bit rate : 3 141 Kbps
Encoded date : UTC 2013-02-09 06:03:37
Writing application : mkvmerge v5.2.0 (I cant explain) built on Dec 18 2011 18:12:03
Writing library : libebml v1.2.3 + libmatroska v1.3.0

Video
ID : 1
Format : AVC
Format/Info : Advanced Video Codec
Format profile : [email protected]
Format settings, CABAC : Yes
Format settings, ReFrames : 12 frames
Codec ID : V_MPEG4/ISO/AVC
Duration : 1h 37mn
Bit rate : 2 500 Kbps
Width : 1 280 pixels
Height : 536 pixels
Display aspect ratio : 2.40:1
Frame rate : 23.976 fps
Color space : YUV
Chroma subsampling : 4:2:0
Bit depth : 8 bits
Scan type : Progressive
Bits/(Pixel*Frame) : 0.152
Stream size : 1.66 GiB (78%)
Title : Back to the Sea 2012 720p BluRay DD5.1 x264
Writing library : x264 core 129 r2245 bc13772
Encoding settings : cabac=1 / ref=12 / deblock=1:-1:-1 / analyse=0x3:0x113 / me=umh / subme=11 / psy=1 / psy_rd=0.60:0.00 / mixed_ref=1 / me_range=24 / chroma_me=1 / trellis=2 / 8x8dct=1 / cqm=0 / deadzone=21,11 / fast_pskip=0 / chroma_qp_offset=-2 / threads=12 / lookahead_threads=2 / sliced_threads=0 / nr=0 / decimate=1 / interlaced=0 / bluray_compat=0 / constrained_intra=0 / bframes=7 / b_pyramid=2 / b_adapt=2 / b_bias=0 / direct=3 / weightb=1 / open_gop=0 / weightp=2 / keyint=250 / keyint_min=23 / scenecut=40 / intra_refresh=0 / rc_lookahead=60 / rc=2pass / mbtree=0 / bitrate=2500 / ratetol=1.0 / qcomp=0.65 / qpmin=0 / qpmax=69 / qpstep=4 / cplxblur=20.0 / qblur=0.5 / vbv_maxrate=50000 / vbv_bufsize=62500 / nal_hrd=none / ip_ratio=1.30 / pb_ratio=1.20 / aq=2:0.60
Language : English
Default : Yes
Forced : Yes

Audio
ID : 2
Format : AC-3
Format/Info : Audio Coding 3
Mode extension : CM (complete main)
Format settings, Endianness : Big
Codec ID : A_AC3
Duration : 1h 37mn
Bit rate mode : Constant
Bit rate : 640 Kbps
Channel(s) : 6 channels
Channel positions : Front: L C R, Side: L R, LFE
Sampling rate : 48.0 KHz
Bit depth : 16 bits
Compression mode : Lossy
Stream size : 447 MiB (20%)
Title : DD 5.1 @ 640 kbps
Language : Russian
Default : Yes
Forced : Yes

Menu
00:00:00.000 : en:Chapter 01
00:08:07.987 : en:Chapter 02
00:15:50.449 : en:Chapter 03
00:25:57.055 : en:Chapter 04
00:33:57.535 : en:Chapter 05
00:43:59.637 :
b342f16092dfafd9ed8b80f5da2f2428282cf38aХрабрый плавник / Back to the Sea (Том Лу, Мультфильм, 2012) [ВDRip-AVC, Дубляж] Храбрый плавник / Back to the Sea (Том Лу, Мультфильм, 2012) [ВDRip-AVC, Дубляж] " />

Аплоадер: Админ, дата: 10-02-2013, 12:22, торрент скачан: 359 раз

Понравилась раздача? Посмотрите эти:
  • FLO / NRG [2012, Pop, Dance, MasterRip]
  • Даю год / I Give It a Year (Дэн Мазер, Мелодрама, Комедия, 2013) [BDRip-AVC ...
  • О чём молчат девушки (Карен Оганесян, Комедия, 2013) [BDRip-AVC, Не требует ...
  • Храбрый плавник / Back to the Sea (Том Лу, Мультфильм, 2012) [BDRip, Дубляж ...
  • Храбрый плавник / Back to the Sea (Том Лу, мультфильм, 2012) [HDRip-AVC, Пр ...
  • Храбрый плавник / Back to the Sea (Том Лу, Мультфильм, 2012) [BDRip, Дубляж ...
  • Храбрый плавник / Back to the Sea (Том Лу, Мультфильм, 2012) [DVD9, Дубляж] ...
  • Снежная королева (Максим Свешников, Владлен Барбэ, Мультфильм, фэнтези, при ...
  • Черный дрозд / Deadfall (Штефан Руцовицки, Триллер, драма, криминал, 2012) ...
  • Марко Макако / Marco Macaco (Жан Рабек, Мультфильм, комедия, семейный, 2012 ...
  • Терминал / The Terminal (Стивен Спилберг, комедия, мелодрама, драма, 2004) ...
  • Кот в сапогах / Puss in Boots (Крис Миллер, мультфильм, 2011) [ВDRip-AVC, П ...
  • Двигай время! / Los ilusionautas (Эдуардо Шульдт, Мультфильм, фэнтези, прик ...
  • [3D] Храбрый плавник 3D трейлер / Back to the Sea 3D trailer (Том Лу / Thom ...
  • Схватка / The Grey (Джо Карнахан, Боевик, 2012) [BDRip 720p, Профессиональн ...
  • Запрещенная реальность (Константин Максимов, фантастика, боевик, 2009) [BDR ...
  • Выкрутасы (Леван Габриадзе, мелодрама, комедия, спорт, 2011) [ВDRip 720p, Н ...
  • Ю-571 / U-571 (Джонатан Мостоу, Боевик, 2000) [BDRip - AVC, Дубляж + Субтит ...
  • Джок / Jock (Дункан МакНили, мультфильм, комедия, приключения, семейный, 20 ...
  • Ворон / The Raven (Джеймс МакТиг, Триллер, детектив, 2012) [BDRip 720p, Дуб ...
  • Золушка: Полный вперед! / Cendrillon au Far West (Паскаль Эрольд, Мультфиль ...
  • Патруль / End of Watch (Дэвид Эйр, Триллер, драма, криминал, 2012) [BDRip 7 ...
  • Mylene Farmer / Du Temps [2011, Pop, HDTVRip]
  • Mylene Farmer / Bleu Noir [2011, Pop, HDTVRip]
  • PBS: Природа – Гималаи / PBS: Nature – The Himalayas (Крис Морган, Докумен ...
  • Информация
    Посетители, находящиеся в группе Гости, не могут оставлять комментарии к данной публикации.