вход на сайт

Имя пользователя :
Пароль :

Восстановление пароля Регистрация
Снежная королева (Максим Свешников, Владлен Барбэ, Мультфильм, фэнтези, приключения, семейный, 2012) [BDRip, Не требуется]
Рейтинг:
(голосов: 1)



[img]{THEME}/images/logopost.png[/img]



• Снежная королева •
«Главное новогоднее приключение»

Год выпуска: 2012
Страна: Россия
Производство: Инлэй Фильм
Жанр: Мультфильм, фэнтези, приключения, семейный

Режиссёр: Максим Свешников, Владлен Барбэ
В ролях: Иван Охлобыстин Нюша Шурочкина Анна Ардова Рамиля Искандер Дмитрий Нагиев Лиза Арзамасова Галина Тюнина Юрий Стоянов Людмила Артемьева Михаил Тихонов

Перевод: Не требуется
Субтитры: Нет

Описание: В стремлении сотворить Новый мир — холодный и практичный, где четкость линий призвана заменить эмоции, а северный ветер должен остудить людские души, Снежная Королева избавляется от всех представителей творческих профессий. Маленькой и смелой Герде, отправившейся в опасное путешествие, чтобы спасти своего брата Кая, предстоит столкнуться с этим холодным миром Снежной Королевы. Преодолевая все сложности и преграды на пути к своей цели, Герда не только обретает семью, но и веру в себя, находит поддержку новых друзей.Дата премьеры (мир): 1 января 2013
Дата премьеры (РФ): 31 декабря 2012, «Bazelevs Distribution»

Качество: BDRip |Сэмпл
Продолжительность: 01:17:21


Формат: AVI
Видео кодек: XviD
Аудио кодек: AC3
Видео: 720x400 (16:9), 24 fps, XviD build 50 ~2286 kbps avg, 0.331 bit/pixel
Аудио: 48 kHz, AC3 Dolby Digital, 3/2 (L,C,R,l,r) + LFE ch, ~448.00 kbps avg

"Mediainfo:" ▼TextОбщее
Полное имя : Snezhnaya.Koroleva.2012.O.BDRip.avi
Формат : AVI
Формат/Информация : Audio Video Interleave
Размер файла : 1,46 Гбайт
Продолжительность : 1 ч. 16 м.
Общий поток : 2743 Кбит/сек
Программа кодирования : VirtualDubMod 1.5.10.3 (build 2550/release)
Библиотека кодирования : VirtualDubMod build 2550/release

Видео
Идентификатор : 0
Формат : MPEG-4 Visual
Профиль формата : Advanced [email protected]
Параметр BVOP формата : 1
Параметр QPel формата : Нет
Параметр GMC формата : Без точки перехода
Параметр матрицы формата : Выборочная
Идентификатор кодека : XVID
Идентификатор кодека/Подсказка : XviD
Продолжительность : 1 ч. 16 м.
Битрейт : 2286 Кбит/сек
Ширина : 720 пикселей
Высота : 400 пикселей
Соотношение сторон : 16:9
Частота кадров : 24,000 кадра/сек
Цветовое пространство : YUV
Субдискретизация насыщенности : 4:2:0
Битовая глубина : 8 бит
Тип развёртки : Прогрессивная
Метод сжатия : С потерями
Бит/(Пиксели*Кадры) : 0.331
Размер потока : 1,21 Гбайт (83%)
Библиотека кодирования : XviD 65

Аудио
Идентификатор : 1
Формат : AC-3
Формат/Информация : Audio Coding 3
Расширение режима : CM (complete main)
Параметр Endianness формата : Big
Идентификатор кодека : 2000
Продолжительность : 1 ч. 16 м.
Вид битрейта : Постоянный
Битрейт : 448 Кбит/сек
Каналы : 6 каналов
Расположение каналов : Front: L C R, Side: L R, LFE
Частота : 48,0 КГц
Битовая глубина : 16 бит
Метод сжатия : С потерями
Размер потока : 244 Мбайт (16%)
Выравнивание : Разделение по промежуткам
Продолжительность промежутка : 42 мс. (1,00 видеокадр)
Время предзагрузки промежутка : 500 мс.


Релиз Группы "Virtus"

Стол заказов / Вступление в РГ / Благодарности, критика и другое


c232af902d16f3c25fd95c219099e69ca2420a6aСнежная королева (Максим Свешников, Владлен Барбэ, Мультфильм, фэнтези, приключения, семейный, 2012) [BDRip, Не требуется] Снежная королева (Максим Свешников, Владлен Барбэ, Мультфильм, фэнтези, приключения, семейный, 2012) [BDRip, Не требуется] " />

Аплоадер: Админ, дата: 1-02-2013, 01:01, торрент скачан: 359 раз

Понравилась раздача? Посмотрите эти:
  • Как поймать перо Жар-Птицы (Георгий Гитис, Вячеслав Плотников, мультфильм, ...
  • Миллион для чайников / The Brass Teapot (Рамаа Мосли, Фэнтези, триллер, ком ...
  • Таймлесс. Рубиновая книга / Rubinrot (Феликс Фуксштайнер, Фантастика, фэнте ...
  • [3D] Снежная королева (Максим Свешников, Владлен Барбэ, Мультфильм, Фэнтези ...
  • [3D] Снежная королева (Максим Свешников, Владлен Барбэ, Мультфильм, Фэнтези ...
  • [3D] Снежная королева (Максим Свешников, Владлен Барбэ, Мультфильм, Фэнтези ...
  • Мулан / Mulan (Даррел Руни, Линн Сауферлэнд, мультфильм, мюзикл, приключен ...
  • Снежная королева (Максим Свешников, Владлен Барбэ, Мультфильм, фэнтези, при ...
  • Снежная королева (Максим Свешников, Владлен Барбэ, Мультфильм, фэнтези, при ...
  • Снежная королева (Максим Свешников, Владлен Барбэ, мультфильм, фэнтези, при ...
  • Снежная королева (Максим Свешников, Владлен Барбэ, Мультфильм, фэнтези, при ...
  • Снежная королева (Максим Свешников, Владлен Барбэ, Мультфильм, фэнтези, при ...
  • Снежная королева (Максим Свешников, Владлен Барбэ, Мультфильм, фэнтези, при ...
  • Снежная королева (Максим Свешников, Владлен Барбэ, Мультфильм, фэнтези, при ...
  • Снежная королева (Максим Свешников, Владлен Барбэ, Мультфильм, фэнтези, при ...
  • [3D] Снежная Королева 3D трейлер (Максим Свешников, Владлен Барбэ, Мультфил ...
  • К-9: Рождественские приключения / K9 Adventures: A Christmas Tale (Бен Гурл ...
  • Вечерний Ургант // Сезон 2. Выпуск 68 (ТВ-шоу, 27.12.2012) [SATRip, Не треб ...
  • Снежная королева (Геннадий Казанский, фэнтези, драма, приключения, семейный ...
  • Человек из банки (Иван Кульнев, Комедия, 2012) [DVDRip, Не требуется]
  • Информация
    Посетители, находящиеся в группе Гости, не могут оставлять комментарии к данной публикации.