вход на сайт

Имя пользователя :
Пароль :

Восстановление пароля Регистрация
Диномама 3D / Dino Time (Юн-сок Чхве, Джон Кафка, мультфильм, комедия, приключения, семейный, 2012) [BDRip, Дубляж]
Рейтинг:
(голосов: 1)



[img]{THEME}/images/logopost.png[/img]



•Диномама 3D / Dino Time •
«В Юрский период на машине времени»
♥ Год выпуска: 2012
♥ Страна: США, Корея Южная
♥ Производство: CJ Entertainment, Myriad Pictures, Toiion
♥ Жанр: мультфильм, комедия, приключения, семейный

♥ Режиссёр: Юн-сок Чхве, Джон Кафка
♥ В ролях: Памела Адлон, Роб Шнайдер, Джейн Линч, Стивен Болдуин, Уильям Болдуин, Тара Стронг, Мелани Гриффит, Юрий Ловенталь, Джессика Ди Чикко, Мелани Абрамофф


♥ Перевод: Дубляж
♥ Субтитры: Отсутствуют
♥ Описание: Эрни, его сестра Джулия и лучший друг Макс — неразлучная троица. Однажды, друзья без спроса залезли в странное устройство, которое сконструировал папа Макса, и случайно нажали кнопку запуска. Устройство оказалось машиной времени, и ребята очутились в Юрском периоде, прямо в гнезде Тираннозавра. Но вот радость: самка гигантского ящера приняла ребят за своих детенышей. Но не все, конечно, так безоблачно в мире хищников. Кое-кто мечтает полакомиться непрошеными гостями! Друзьям нужно немедленно уносить ноги и подумать о возвращении. Но как это сделать, если важная деталь машины исчезла?



♥ Качество: BDRip | исх. Blu-Ray
♥ Продолжительность: 01:25:26 час.

♥ Формат: AVI
♥ Видео кодек: XviD
♥ Аудио кодек: AC3
♥ Видео: 720x384 (1.875), 23.976 fps, XviD build 50 ~1833 kbps avg, 0.276 bit/pixe
♥ Аудио1: 48 kHz, AC3 Dolby Digital, 3/2 (L,C,R,l,r) + LFE ch, ~448 kbps
♥ Дата премьеры (мир): 30 ноября 2012
♥ Дата премьеры (РФ): 31 января 2013, «Наше Кино»
MediaInfo: ▼
TextGeneral
Complete name : C:Dinomama.2012.D.BDRip.avi
Format : AVI
Format/Info : Audio Video Interleave
File size : 1.37 GiB
Duration : 1h 25mn
Overall bit rate : 2 290 Kbps
Movie name : Dinomama.2012.D.BDRip.
Writing application : VirtualDubMod 1.5.10.3 | www.virtualdub-fr.org || (build 2550/release)
Original source form/Name : Cartoon
Video #0
ID : 0
Format : MPEG-4 Visual
Format profile : Advanced [email protected]
Format settings, BVOP : 1
Format settings, QPel : No
Format settings, GMC : No warppoints
Format settings, Matrix : Custom
Codec ID : XVID
Codec ID/Hint : XviD
Duration : 1h 25mn
Bit rate : 1 833 Kbps
Width : 720 pixels
Height : 384 pixels
Display aspect ratio : 1.875
Frame rate : 23.976 fps
Color space : YUV
Chroma subsampling : 4:2:0
Bit depth : 8 bits
Scan type : Progressive
Compression mode : Lossy
Bits/(Pixel*Frame) : 0.276
Stream size : 1.09 GiB (80%)
Writing library : XviD 1.2.1 (UTC 2008-12-04)
Audio #1
ID : 1
Format : AC-3
Format/Info : Audio Coding 3
Mode extension : CM (complete main)
Codec ID : 2000
Duration : 1h 25mn
Bit rate mode : Constant
Bit rate : 448 Kbps
Channel(s) : 6 channels
Channel positions : Front: L C R, Side: L R, LFE
Sampling rate : 48.0 KHz
Bit depth : 16 bits
Compression mode : Lossy
Stream size : 273 MiB (20%)
Alignment : Split accross interleaves
Interleave, duration : 42 ms (1.00 video frame)
Interleave, preload duration : 500 ms
Релиз Группы "Virtus"

Стол заказов /
26ba6d117353d86dfba1e4402f2fc53b951e5723Диномама 3D / Dino Time (Юн-сок Чхве, Джон Кафка, мультфильм, комедия, приключения, семейный, 2012) [BDRip, Дубляж] Диномама 3D / Dino Time (Юн-сок Чхве, Джон Кафка, мультфильм, комедия, приключения, семейный, 2012) [BDRip, Дубляж] " />

Аплоадер: Админ, дата: 28-02-2013, 23:21, торрент скачан: 359 раз

Понравилась раздача? Посмотрите эти:
  • Безумный Макс 3: Под куполом грома / Mad Max Beyond Thunderdome (Джордж Мил ...
  • Поймай толстуху, если сможешь [Театральная версия] / Identity Thief [Theatr ...
  • Звук моего голоса / Sound of My Voice (Зал Батманглидж, триллер, драма, 201 ...
  • Очень страшное кино 5 / Scary MoVie (Малкольм Д. Ли, Комедия, 2013) [BDRip, ...
  • [3D] Диномама 3D / Dino Time (Юн-сок Чхве, Джон Кафка, Мультфильм, комедия, ...
  • [3D] Диномама 3D / Dino Time (Юн-сок Чхве, Джон Кафка, Мультфильм, комедия, ...
  • Безопасность не гарантируется / Safety Not Guaranteed (Колин Треворроу, фан ...
  • Диномама 3D / Dino Time (Юн-сок Чхве, Джон Кафка, мультфильм, комедия, прик ...
  • Диномама 3D / Dino Time (Юн-сок Чхве, Джон Кафка, Мультфильм, комедия, прик ...
  • Диномама 3D / Dino Time (Юн-сок Чхве, Джон Кафка, Мультфильм, комедия, прик ...
  • Диномама 3D / Dino Time (Юн-сок Чхве, Джон Кафка, Мультфильм, комедия, прик ...
  • Диномама 3D / Dino Time (Юн-сок Чхве, Джон Кафка, Мультфильм, комедия, прик ...
  • Скуби-Ду! Маска Синего Сокола / Scooby-Doo! Mask Of The Blue Falcon (Оливье ...
  • Марко Макако / Marco Macaco (Жан Рабек, мультфильм, комедия, семейный, 2012 ...
  • Монстры на каникулах / Hotel Transylvania (Генндий Тартаковский, мультфильм ...
  • Плохая актриса / Bad Actress (Роберт Ли Кинг, комедия, 2011) [DVDRip, Профе ...
  • Захват / Carjacked (Джон Бонито, триллер, 2011)[BDRip, Профессиональный (мн ...
  • Три богатыря на дальних берегах (Константин Феоктистов, мультфильм, комедия ...
  • Планета сокровищ / Treasure Planet (Рон Клементс, Джон Маскер, Мультфильм, ...
  • Олимпиада 2012 / Женщины, Мужчины / Плавание / Квалификация / НТВ+ [30.07.2 ...
  • Информация
    Посетители, находящиеся в группе Гости, не могут оставлять комментарии к данной публикации.