вход на сайт

Имя пользователя :
Пароль :

Восстановление пароля Регистрация
Диномама 3D / Dino Time (Юн-сок Чхве, Джон Кафка, Мультфильм, комедия, приключения, семейный, 2012) [DVDRip, Профессиональный (полное дублирование)]
Рейтинг:
(голосов: 1)



[img]{THEME}/images/logopost.png[/img]



• Диномама 3D / Dino Time •
«В Юрский период на машине времени»

Год выпуска: 2012
Страна: США, Корея Южная
Производство: CJ Entertainment
Жанр: Мультфильм, комедия, приключения, семейный

Режиссёр: Юн-сок Чхве / Yoon-suk Choi, Джон Кафка / John Kafka
В ролях: Джейн Линч, Роб Шнайдер, Памела Адлон, Уильям Болдуин, Тара Стронг, Мелани Гриффит, Стивен Болдуин, Юрий Ловенталь, Джессика Ди Чикко, Мелани Абрамофф...

Перевод: Профессиональный (полное дублирование)
Субтитры: Нет

Описание: Эрни, его сестра Джулия и лучший друг Макс — неразлучная троица. Однажды, друзья без спроса залезли в странное устройство, которое сконструировал папа Макса, и случайно нажали кнопку запуска. Устройство оказалось машиной времени, и ребята очутились в Юрском периоде, прямо в гнезде Тираннозавра. Но вот радость: самка гигантского ящера приняла ребят за своих детенышей. Но не все, конечно, так безоблачно в мире хищников. Кое-кто мечтает полакомиться непрошеными гостями! Друзьям нужно немедленно уносить ноги и подумать о возвращении. Но как это сделать, если важная деталь машины исчезла?Дата премьеры (мир): 30 ноября 2012
Дата премьеры (РФ): 31 января 2013, «Наше Кино»

Качество: DVDRip |Сэмпл
Продолжительность: 01:21:55


Формат: AVI
Видео кодек: XviD
Аудио кодек: MP3
Видео: 720x400 (16:9), 25.000 fps, XviD 64 ~1 137kbps avg, 0.158 bit/pixel
Аудио: 48 kHz, MPEG Layer 3, 2 ch, 128.00 kbps


MediaInfo ▼TextGeneral
Format : AVI
Format/Info : Audio Video Interleave
File size : 747 MiB
Duration : 1h 21mn
Overall bit rate : 1 274 Kbps
Writing application : VirtualDubMod 1.5.10.3 | www.virtualdub-fr.org || (build 2550/release)
Writing library : VirtualDubMod build 2550/release

Video
ID : 0
Format : MPEG-4 Visual
Format profile : Advanced [email protected]
Format settings, BVOP : 1
Format settings, QPel : No
Format settings, GMC : No warppoints
Format settings, Matrix : Custom
Codec ID : XVID
Codec ID/Hint : XviD
Duration : 1h 21mn
Bit rate : 1 137 Kbps
Width : 720 pixels
Height : 400 pixels
Display aspect ratio : 16:9
Frame rate : 25.000 fps
Color space : YUV
Chroma subsampling : 4:2:0
Bit depth : 8 bits
Scan type : Progressive
Compression mode : Lossy
Bits/(Pixel*Frame) : 0.158
Stream size : 666 MiB (89%)
Writing library : XviD 64

Audio
ID : 1
Format : MPEG Audio
Format version : Version 1
Format profile : Layer 3
Codec ID : 55
Codec ID/Hint : MP3
Duration : 1h 21mn
Bit rate mode : Constant
Bit rate : 128 Kbps
Channel(s) : 2 channels
Sampling rate : 48.0 KHz
Compression mode : Lossy
Stream size : 75.0 MiB (10%)
Alignment : Aligned on interleaves
Interleave, duration : 40 ms (1.00 video frame)
Interleave, preload duration : 504 ms


Релиз Группы "Virtus"

Стол заказов / Вступление в РГ / Благодарности, критика и другое


78242b20a61c8ba8f77da6f553488f195352ebc6Диномама 3D / Dino Time (Юн-сок Чхве, Джон Кафка, Мультфильм, комедия, приключения, семейный, 2012) [DVDRip, Профессиональный (полное дублирование)] Диномама 3D / Dino Time (Юн-сок Чхве, Джон Кафка, Мультфильм, комедия, приключения, семейный, 2012) [DVDRip, Профессиональный (полное дублирование)] " />

Аплоадер: Админ, дата: 28-02-2013, 05:36, торрент скачан: 359 раз

Понравилась раздача? Посмотрите эти:
  • Ледниковый период 4: Континентальный дрейф / Ice Age: Continental Drift (Ст ...
  • Университет монстров / Monsters University (Дэн Скэнлон, Мультфильм, фэнтез ...
  • Мэрайа Мунди и шкатулка Мидаса / The Adventurer: The Curse of the Midas Box ...
  • Турбо / Turbo (Дэвид Сорен, Мультфильм, комедия, приключения, семейный, спо ...
  • Скуби-Ду! Боязнь Сцены / Scooby-Doo! Stage Fright (Виктор Кук, мультфильм, ...
  • [3D] Диномама 3D / Dino Time (Юн-сок Чхве, Джон Кафка, Мультфильм, комедия, ...
  • [3D] Диномама 3D / Dino Time (Юн-сок Чхве, Джон Кафка, Мультфильм, комедия, ...
  • В Первый Раз / The First Time (Джон Кэздан, мелодрама, комедия, 2012) [DVDR ...
  • Диномама 3D / Dino Time (Юн-сок Чхве, Джон Кафка, мультфильм, комедия, прик ...
  • Диномама 3D / Dino Time (Юн-сок Чхве, Джон Кафка, Мультфильм, комедия, прик ...
  • Диномама 3D / Dino Time (Юн-сок Чхве, Джон Кафка, Мультфильм, комедия, прик ...
  • Диномама 3D / Dino Time (Юн-сок Чхве, Джон Кафка, Мультфильм, комедия, прик ...
  • Реальные Парни / Stand Up Guys (Фишер Стивенс, Драма, комедия, криминал, 20 ...
  • Реальные Парни / Stand Up Guys (Фишер Стивенс, Драма, комедия, криминал, 20 ...
  • Муви 43 / Movie 43 (Стивен Брилл, Питер Фаррелли, Элизабет БэнксСтивен, ком ...
  • Магазин самоубийств / Le magasin des suicides (Патрис Леконт, Мультфильм, м ...
  • Ральф / Wreck-It Ralph (Рич Мур, Мультфильм, комедия, семейный, 2012) [BDRi ...
  • Скуби-Ду! Маска Синего Сокола / Scooby-Doo! Mask Of The Blue Falcon (Оливье ...
  • Диномама 3D / Dino Time (Юн-сок Чхве, Джон Кафка, мультфильм, комедия, прик ...
  • Экипаж / Flight (Роберт Земекис, Драма, 2012) [BDRip, Профессиональный (пол ...
  • Мулан 2 / Mulan II (Даррел Руни, Линн Сауферлэнд, мультфильм, мюзикл, боеви ...
  • Баллада Несси / The Ballad of Nessie (Стиви Вермерс, мультфильм, короткомет ...
  • Финес и Ферб: Покорение второго измерения / Phineas and Ferb the Movie: Acr ...
  • Рука-убийца / Idle Hands (Родмен Флендер,ужасы, триллер, комедия, 1999) [HD ...
  • Из джунглей в джунгли / Jungle 2 Jungle (Джон Пасквин, комедия, приключения ...
  • Информация
    Посетители, находящиеся в группе Гости, не могут оставлять комментарии к данной публикации.