вход на сайт

Имя пользователя :
Пароль :

Восстановление пароля Регистрация
Муви 43 / Movie 43 (Стивен Брилл, Питер Фаррелли, Элизабет БэнксСтивен, комедия, 2013) [BDRip-AVC, Профессиональный (дублированный) + Авторский (одноголосый закадровый)]
Рейтинг:
(голосов: 1)



[img]{THEME}/images/logopost.png[/img]



• Муви 43 / Movie 43 •
«Самая отвязная комедия Нового года»

Год выпуска: 2012
Страна: США
Производство: GreeneStreet Films Inc., Relativity Media, Virgin Produced, Wessler Entertainment, Witness Protection Films
Жанр: Комедия

Режиссёр: Стивен Брилл, Питер Фаррелли, Боб Оденкирк
В ролях: Холли Берри, Джерард Батлер, Анна Фэрис, Хью Джекман, Джонни Ноксвил, Кристофер Минц-Плассе, Шонн Уильям Скотт, Эмма Стоун, Кейт Уинслет, Деннис Куэйд

Перевод: Профессиональный (дублированный) + Авторский (одноголосый закадровый) | Goblin
Субтитры: Нет

Описание: 25 cуперзвезд первой величины - в комедийном проекте, который состоит из двух десятков мини-новелл с нескончаемым потоком шуток, гэгов, острот и пародий, о страстях и страстишках человеческих.Дата премьеры (мир): 11 января 2013
Дата премьеры (РФ): 1 января 2013, «Парадиз»

Автор рипа:


Качество: BDRip-AVC |Сэмпл
Продолжительность: 01:39:30


Формат: MKV
Видео кодек: AVC
Аудио кодек: AC3
Видео: H.264, 1024x576 (16:9), 24,000 fps, 2251 Кbps, 0.159 bit/pixel
Аудио#1: 48 kHz, AC3 Dolby Digital, 3/2 (L,C,R,l,r) + LFE ch, ~448.00 kbps avg | DUB
Аудио#2: 48 kHz, AC3 Dolby Digital, 3/2 (L,C,R,l,r) + LFE ch, ~448.00 kbps avg | Goblin

MediaInfo ▼TextGeneral
Format : Matroska
Format version : Version 2
File size : 2.19 GiB
Duration : 1h 39mn
Overall bit rate : 3 145 Kbps
Movie name : -=POTROKS=-
Encoded date : UTC 2013-02-27 15:34:27
Writing application : mkvmerge v5.7.0 (The Whirlwind) built on Jul 8 2012 20:08:51
Writing library : libebml v1.2.3 + libmatroska v1.3.0

Video
ID : 1
Format : AVC
Format/Info : Advanced Video Codec
Format profile : [email protected]
Format settings, CABAC : Yes
Format settings, ReFrames : 10 frames
Codec ID : V_MPEG4/ISO/AVC
Duration : 1h 39mn
Bit rate : 2 251 Kbps
Width : 1 024 pixels
Height : 576 pixels
Display aspect ratio : 16:9
Frame rate mode : Constant
Frame rate : 24.000 fps
Color space : YUV
Chroma subsampling : 4:2:0
Bit depth : 8 bits
Scan type : Progressive
Bits/(Pixel*Frame) : 0.159
Stream size : 1.52 GiB (70%)
Title : Movie 43
Writing library : x264 core 125 r2208 d9d2288
Encoding settings : cabac=1 / ref=10 / deblock=1:-2:-1 / analyse=0x3:0x133 / me=umh / subme=11 / psy=1 / psy_rd=1.00:0.02 / mixed_ref=1 / me_range=32 / chroma_me=1 / trellis=2 / 8x8dct=1 / cqm=0 / deadzone=21,11 / fast_pskip=0 / chroma_qp_offset=-3 / threads=6 / lookahead_threads=1 / sliced_threads=0 / nr=0 / decimate=1 / interlaced=0 / bluray_compat=0 / constrained_intra=0 / bframes=11 / b_pyramid=2 / b_adapt=2 / b_bias=0 / direct=3 / weightb=1 / open_gop=0 / weightp=2 / keyint=240 / keyint_min=23 / scenecut=40 / intra_refresh=0 / rc_lookahead=150 / rc=2pass / mbtree=1 / bitrate=2251 / ratetol=1.0 / qcomp=0.70 / qpmin=0 / qpmax=69 / qpstep=4 / cplxblur=20.0 / qblur=0.5 / vbv_maxrate=25000 / vbv_bufsize=32500 / nal_hrd=none / ip_ratio=1.25 / aq=1:0.80
Language : English
Default : Yes
Forced : No

Audio #1
ID : 2
Format : AC-3
Format/Info : Audio Coding 3
Mode extension : CM (complete main)
Format settings, Endianness : Big
Codec ID : A_AC3
Duration : 1h 39mn
Bit rate mode : Constant
Bit rate : 448 Kbps
Channel(s) : 6 channels
Channel positions : Front: L C R, Side: L R, LFE
Sampling rate : 48.0 KHz
Bit depth : 16 bits
Compression mode : Lossy
Delay relative to video : 59ms
Stream size : 319 MiB (14%)
Title : Dub | DD 5.1 @ 448 kbps
Language : Russian
Default : Yes
Forced : Yes

Audio #2
ID : 3
Format : AC-3
Format/Info : Audio Coding 3
Mode extension : CM (complete main)
Format settings, Endianness : Big
Codec ID : A_AC3
Duration : 1h 39mn
Bit rate mode : Constant
Bit rate : 448 Kbps
Channel(s) : 6 channels
Channel positions : Front: L C R, Side: L R, LFE
Sampling rate : 48.0 KHz
Bit depth : 16 bits
Compression mode : Lossy
Delay relative to video : 59ms
Stream size : 319 MiB (14%)
Title : Goblin | DD 5.1 @ 448 kbps
Language : Russian
Default : No
For
e5ac318a14f2f42293664eec144ea609f57f0cfaМуви 43 / Movie 43 (Стивен Брилл, Питер Фаррелли, Элизабет БэнксСтивен, комедия, 2013) [BDRip-AVC, Профессиональный (дублированный) + Авторский (одноголосый закадровый)] Муви 43 / Movie 43 (Стивен Брилл, Питер Фаррелли, Элизабет БэнксСтивен, комедия, 2013) [BDRip-AVC, Профессиональный (дублированный) + Авторский (одноголосый закадровый)] " />

Аплоадер: Админ, дата: 28-02-2013, 00:35, торрент скачан: 359 раз

Понравилась раздача? Посмотрите эти:
  • Муви 43 / Movie 43 (Стивен Брилл, Питер Фаррелли, Боб Оденкирк, Комедия ...
  • Муви 43 / Movie 43 (Стивен Брилл, Питер Фаррелли, Боб Оденкирк, комедия, 20 ...
  • [LT]+[EN] Муви 43 / Movie 43 (Стивен Брилл, Питер Фаррелли, Боб Оденкёрк, к ...
  • Муви 43 / Movie 43 (Стивен Брилл, Питер Фаррелли, Боб Оденкёрк, комедия, 20 ...
  • Муви 43 / Movie 43 (Стивен Брилл, Питер Фаррелли, Боб Оденкирк, Комедия, 20 ...
  • Муви 43 / Movie 43 (Стивен Брилл, Питер Фаррелли, Элизабет БэнксСтивен, ком ...
  • Муви 43 / Movie 43 (Стивен Брилл, Питер Фаррелли, Боб Оденкирк, Комедия, 20 ...
  • Муви 43 / Movie 43 (Стивен Брилл, Питер Фаррелли, Боб Оденкирк, Комедия, 20 ...
  • Муви 43 / Movie 43 (Стивен Брилл, Питер Фаррелли, Боб Оденкирк, комедия, 20 ...
  • Муви 43 / Movie 43 (Стивен Брилл, Питер Фаррелли, Элизабет БэнксСтивен, ком ...
  • Муви 43 / Movie 43 (Стивен Брилл, Питер Фаррелли, Элизабет БэнксСтивен, ком ...
  • Муви 43 / Movie 43 (Стивен Брилл, Питер Фаррелли, Элизабет БэнксСтивен, ком ...
  • Муви 43 / Movie 43 (Стивен Брилл, Питер Фаррелли, Элизабет БэнксСтивен, ком ...
  • Муви 43 / Movie 43 (Стивен Брилл, Питер Фаррелли, Элизабет БэнксСтивен, ком ...
  • Муви 43 / Movie 43 (Стивен Брилл, Питер Фаррелли, Боб Оденкирк, комедия, 20 ...
  • Муви 43 / Movie 43 (Стивен Брилл, Питер Фаррелли, Элизабет БэнксСтивен, ком ...
  • Муви 43 / Movie 43 (Стивен Брилл, Питер Фаррелли, Боб Оденкирк, Комедия, 20 ...
  • Муви 43 / Movie 43 (Стивен Брилл, Питер Фаррелли, Боб Оденкирк, комедия, 20 ...
  • Муви 43 / Movie 43 (Стивен Брилл, Питер Фаррелли, Элизабет БэнксСтивен, ком ...
  • Муви 43 / Movie 43 (Стивен Брилл, Питер Фаррелли, Боб Оденкирк, комедия, 20 ...
  • Муви 43 / Movie 43 (Стивен Брилл, Питер Фаррелли, Боб Оденкирк, комедия, 20 ...
  • Муви 43 / Movie 43 (Стивен Брилл, Питер Фаррелли, Боб Оденкирк, комедия, 20 ...
  • Муви 43 / Movie 43 (Стивен Брилл, Питер Фаррелли, Боб Оденкирк, комедия, 20 ...
  • Муви 43 / Movie 43 (Стивен Брилл, Питер Фаррелли, Боб Оденкирк,... Комедия, ...
  • [Трейлер] Муви 43 / Movie 43 (Питер Фаррелли, комедия) [HDRip, Гоблин](1 ян ...
  • Информация
    Посетители, находящиеся в группе Гости, не могут оставлять комментарии к данной публикации.