вход на сайт

Имя пользователя :
Пароль :

Восстановление пароля Регистрация
Магазин самоубийств / Le magasin des suicides (Патрис Леконт, Мультфильм, мюзикл, комедия, 2012) [HDRip, Профессиональный (многоголосый закадровый)]
Рейтинг:
(голосов: 1)



[img]{THEME}/images/logopost.png[/img]



• Магазин самоубийств / Le magasin des suicides •
-

Год выпуска: 2012
Страна: Франция, Канада, Бельгия
Производство: ARP Sélection
Жанр: Мультфильм, мюзикл, комедия

Режиссёр: Патрис Леконт
В ролях: Бернар Алан, Изабель Спад, Кейси Моттет Кляйн, Изабель Джани, Лоран Жандрон, Пьер-Франсуа Мартен-Лаваль, Эрик Метайе, Жак Мату, Юрбен Канселье, Паскаль Парментье

Перевод: Профессиональный (многоголосый, закадровый)
Субтитры: Нет

Описание: В неком городе, где жизнь невероятно уныла и невыносима, на протяжении многих поколений процветает магазин, который торгует всем необходимым для совершения самоубийств. Всё идёт замечательно до тех пор, пока в семье владельца этого магазина не рождается Алан — жизнелюбивый и весёлый малыш.Дата премьеры (мир): 24 мая 2012
Дата премьеры (РФ): 7 марта 2013, «Премиум Фильм»

Качество: HDRip |Сэмпл
Продолжительность: 01:19:06


Формат: AVI
Видео кодек: XviD
Аудио кодек: MP3
Видео: 656x368 (16:9), 24.000 fps, XviD 65 ~1184 kbps avg, 0.204 bit/pixel
Аудио: 48 kHz, MPEG Layer 3, 2 ch, 128.00 kbps


MediaInfo ▼TextGeneral
Format : AVI
Format/Info : Audio Video Interleave
File size : 747 MiB
Duration : 1h 19mn
Overall bit rate : 1 321 Kbps
Writing application : VirtualDubMod 1.5.10.3 | www.virtualdub-fr.org || (build 2550/release)
Writing library : VirtualDubMod build 2550/release

Video
ID : 0
Format : MPEG-4 Visual
Format profile : Advanced [email protected]
Format settings, BVOP : 1
Format settings, QPel : No
Format settings, GMC : No warppoints
Format settings, Matrix : Custom
Codec ID : XVID
Codec ID/Hint : XviD
Duration : 1h 19mn
Bit rate : 1 184 Kbps
Width : 656 pixels
Height : 368 pixels
Display aspect ratio : 16:9
Frame rate : 24.000 fps
Color space : YUV
Chroma subsampling : 4:2:0
Bit depth : 8 bits
Scan type : Progressive
Compression mode : Lossy
Bits/(Pixel*Frame) : 0.204
Stream size : 670 MiB (90%)
Writing library : XviD 65

Audio
ID : 1
Format : MPEG Audio
Format version : Version 1
Format profile : Layer 3
Codec ID : 55
Codec ID/Hint : MP3
Duration : 1h 19mn
Bit rate mode : Constant
Bit rate : 128 Kbps
Channel(s) : 2 channels
Sampling rate : 48.0 KHz
Compression mode : Lossy
Stream size : 72.4 MiB (10%)
Alignment : Aligned on interleaves
Interleave, duration : 42 ms (1.00 video frame)
Interleave, preload duration : 504 ms
Writing library : LAME3.99r
Encoding settings : -m s -V 4 -q 2 -lowpass 17 -b 128


Релиз Группы "Virtus"

Стол заказов / Вступление в РГ / Благодарности, критика и другое


31ccd841daa6a3a69d252553520611af6d7c8c62Магазин самоубийств / Le magasin des suicides (Патрис Леконт, Мультфильм, мюзикл, комедия, 2012) [HDRip, Профессиональный (многоголосый закадровый)] Магазин самоубийств / Le magasin des suicides (Патрис Леконт, Мультфильм, мюзикл, комедия, 2012) [HDRip, Профессиональный (многоголосый закадровый)] " />

Аплоадер: Админ, дата: 27-02-2013, 20:06, торрент скачан: 359 раз

Понравилась раздача? Посмотрите эти:
  • Погнали! / Getaway (Кортни Соломон, Боевик,Криминал, 2013) [HDRip, Професси ...
  • Воображариум / Imaginaerum (Стобе Харью, Фэнтези, приключения, мюзикл, драм ...
  • 12 раундов: Перезагрузка / 12 Rounds: Reloaded (Роэль Рейн, Боевик, 2013) [ ...
  • Мой лучший друг / Mon meilleur ami (Патрис Леконт, Комедия, 2006) [DVDRip, ...
  • Магазинчик самоубийств 3D / Le magasin des suicides (Патрис Леконт, мультфи ...
  • [3D] Магазинчик самоубийств / Le magasin des suicides (Патрис Леконт, мульт ...
  • [3D] Магазинчик самоубийств / Le magasin des suicides (Патрис Леконт, мульт ...
  • Любовь на кончиках пальцев / Populaire (Режис Ройнсар, Мелодрама, комедия, ...
  • Неуловимые / Red Dawn (Дэн Брэдли, боевик, 2012) [HDRip, Профессиональный ( ...
  • В хлам / Smashed (Джеймс Понсольдт, Драма, комедия, 2012) [HDRip, Профессио ...
  • Магазин самоубийств / Le magasin des suicides (Патрис Леконт, мультфильм, м ...
  • Магазин самоубийств / Le magasin des suicides (Патрис Леконт, мультфильм, м ...
  • Скуби-Ду! Маска Синего Сокола / Scooby-Doo! Mask Of The Blue Falcon (Оливье ...
  • Мой парень – псих / Silver Linings Playbook (Дэвид О. Расселл, Драма, мелод ...
  • [3D] Магазин самоубийств 3D трейлер / Le magasin des suicides 3D trailer ( ...
  • Чемпионат Европы 2012 / Группа D / 1-й тур / Украина - Швеция / Спорт 1 [11 ...
  • Мулан 2 / Mulan II (Даррел Руни, Линн Сауферлэнд, мультфильм, мюзикл, боеви ...
  • Романтики / The Romantics (Галт Нидерхоффер, Драма, мелодрама, комедия, 201 ...
  • Чемпионат Европы 2012 / Группа B / 1-й тур / Германия - Португалия / Спорт ...
  • Искажение / Skew (Сейв Челенз, ужасы, триллер, 2011) [HDRip, Профессиональн ...
  • Информация
    Посетители, находящиеся в группе Гости, не могут оставлять комментарии к данной публикации.