вход на сайт

Имя пользователя :
Пароль :

Восстановление пароля Регистрация
Муви 43 / Movie 43 (Стивен Брилл, Питер Фаррелли, Элизабет БэнксСтивен, комедия, 2013) [BDRip, Профессиональный (полное дублирование)]
Рейтинг:
(голосов: 1)



[img]{THEME}/images/logopost.png[/img]



• Муви 43 / Movie 43 •
«Самая отвязная комедия Нового года»

Год выпуска: 2012
Страна: США
Производство: GreeneStreet Films Inc., Relativity Media, Virgin Produced, Wessler Entertainment, Witness Protection Films
Жанр: Комедия

Режиссёр: Стивен Брилл, Питер Фаррелли, Боб Оденкирк
В ролях: Холли Берри, Джерард Батлер, Анна Фэрис, Хью Джекман, Джонни Ноксвил, Кристофер Минц-Плассе, Шонн Уильям Скотт, Эмма Стоун, Кейт Уинслет, Деннис Куэйд

Перевод: Профессиональный (полное дублирование)
Субтитры: Нет

Описание: 25 cуперзвезд первой величины - в комедийном проекте, который состоит из двух десятков мини-новелл с нескончаемым потоком шуток, гэгов, острот и пародий, о страстях и страстишках человеческих.Дата премьеры (мир): 11 января 2013
Дата премьеры (РФ): 1 января 2013, «Парадиз»

Качество: BDRip |Сэмпл
Продолжительность: 01:39:30


Формат: AVI
Видео кодек: XviD
Аудио кодек: AC3
Видео: 656x368 (16:9), 24.000 fps, XviD MPEG-4 ~910 kbps avg, 0.157 bit/pixel
Аудио: 48 kHz, MPEG Layer 3, 2 ch, ~128.00 kbps avg


MediaInfo ▼TextGeneral
Format : AVI
Format/Info : Audio Video Interleave
File size : 745 MiB
Duration : 1h 39mn
Overall bit rate : 1 047 Kbps
Writing application : VirtualDubModRus 1.5.10.2 (build 2542/release)
Writing library : VirtualDubMod build 2542/release

Video
ID : 0
Format : MPEG-4 Visual
Format profile : Advanced [email protected]
Format settings, BVOP : 1
Format settings, QPel : No
Format settings, GMC : No warppoints
Format settings, Matrix : Custom
Codec ID : XVID
Codec ID/Hint : XviD
Duration : 1h 39mn
Bit rate : 910 Kbps
Width : 656 pixels
Height : 368 pixels
Display aspect ratio : 16:9
Frame rate : 24.000 fps
Color space : YUV
Chroma subsampling : 4:2:0
Bit depth : 8 bits
Scan type : Progressive
Compression mode : Lossy
Bits/(Pixel*Frame) : 0.157
Stream size : 647 MiB (87%)
Writing library : XviD 64

Audio
ID : 1
Format : MPEG Audio
Format version : Version 1
Format profile : Layer 3
Mode : Joint stereo
Mode extension : MS Stereo
Codec ID : 55
Codec ID/Hint : MP3
Duration : 1h 39mn
Bit rate mode : Constant
Bit rate : 128 Kbps
Channel(s) : 2 channels
Sampling rate : 48.0 KHz
Compression mode : Lossy
Stream size : 91.1 MiB (12%)
Alignment : Aligned on interleaves
Interleave, duration : 42 ms (1.00 video frame)
Interleave, preload duration : 504 ms


Релиз Группы "Virtus"

Стол заказов / Вступление в РГ / Благодарности, критика и другое


3682f47750bba5c11bddcac1bcc735c8e8f719e5Муви 43 / Movie 43 (Стивен Брилл, Питер Фаррелли, Элизабет БэнксСтивен, комедия, 2013) [BDRip, Профессиональный (полное дублирование)] Муви 43 / Movie 43 (Стивен Брилл, Питер Фаррелли, Элизабет БэнксСтивен, комедия, 2013) [BDRip, Профессиональный (полное дублирование)] " />

Аплоадер: Админ, дата: 26-02-2013, 02:34, торрент скачан: 359 раз

Понравилась раздача? Посмотрите эти:
  • Муви 43 / Movie 43 (Стивен Брилл, Питер Фаррелли, Боб Оденкирк, Комедия ...
  • Муви 43 / Movie 43 (Стивен Брилл, Питер Фаррелли, Боб Оденкирк, комедия, 20 ...
  • [LT]+[EN] Муви 43 / Movie 43 (Стивен Брилл, Питер Фаррелли, Боб Оденкёрк, к ...
  • Муви 43 / Movie 43 (Стивен Брилл, Питер Фаррелли, Боб Оденкёрк, комедия, 20 ...
  • Муви 43 / Movie 43 (Стивен Брилл, Питер Фаррелли, Боб Оденкирк, Комедия, 20 ...
  • Муви 43 / Movie 43 (Стивен Брилл, Питер Фаррелли, Элизабет БэнксСтивен, ком ...
  • Муви 43 / Movie 43 (Стивен Брилл, Питер Фаррелли, Боб Оденкирк, комедия, 20 ...
  • Муви 43 / Movie 43 (Стивен Брилл, Питер Фаррелли, Элизабет БэнксСтивен, ком ...
  • Муви 43 / Movie 43 (Стивен Брилл, Питер Фаррелли, Элизабет БэнксСтивен, ком ...
  • Муви 43 / Movie 43 (Стивен Брилл, Питер Фаррелли, Элизабет БэнксСтивен, ком ...
  • Муви 43 / Movie 43 (Стивен Брилл, Питер Фаррелли, Элизабет БэнксСтивен, ком ...
  • Муви 43 / Movie 43 (Стивен Брилл, Питер Фаррелли, Боб Оденкирк, комедия, 20 ...
  • Муви 43 / Movie 43 (Стивен Брилл, Питер Фаррелли, Элизабет БэнксСтивен, ком ...
  • Муви 43 / Movie 43 (Стивен Брилл, Питер Фаррелли, Боб Оденкирк, Комедия, 20 ...
  • Муви 43 / Movie 43 (Стивен Брилл, Питер Фаррелли, Боб Оденкирк, комедия, 20 ...
  • Муви 43 / Movie 43 (Стивен Брилл, Питер Фаррелли, Элизабет БэнксСтивен, ком ...
  • Муви 43 / Movie 43 (Стивен Брилл, Питер Фаррелли, Боб Оденкирк, комедия, 20 ...
  • Муви 43 / Movie 43 (Стивен Брилл, Питер Фаррелли, Боб Оденкирк, комедия, 20 ...
  • Муви 43 / Movie 43 (Стивен Брилл, Питер Фаррелли, Боб Оденкирк, комедия, 20 ...
  • Муви 43 / Movie 43 (Стивен Брилл, Питер Фаррелли, Элизабет БэнксСтивен, ком ...
  • Информация
    Посетители, находящиеся в группе Гости, не могут оставлять комментарии к данной публикации.