вход на сайт

Имя пользователя :
Пароль :

Восстановление пароля Регистрация
Муви 43 / Movie 43 (Стивен Брилл, Питер Фаррелли, Элизабет БэнксСтивен, комедия, 2013) [BDRip, Профессиональный (полное дублирование)]
Рейтинг:
(голосов: 1)



[img]{THEME}/images/logopost.png[/img]



• Муви 43 / Movie 43 •
«Самая отвязная комедия Нового года»

Год выпуска: 2012
Страна: США
Производство: GreeneStreet Films Inc., Relativity Media, Virgin Produced, Wessler Entertainment, Witness Protection Films
Жанр: Комедия

Режиссёр: Стивен Брилл, Питер Фаррелли, Боб Оденкирк
В ролях: Холли Берри, Джерард Батлер, Анна Фэрис, Хью Джекман, Джонни Ноксвил, Кристофер Минц-Плассе, Шонн Уильям Скотт, Эмма Стоун, Кейт Уинслет, Деннис Куэйд

Перевод: Профессиональный (полное дублирование)
Субтитры: Нет

Описание: 25 cуперзвезд первой величины - в комедийном проекте, который состоит из двух десятков мини-новелл с нескончаемым потоком шуток, гэгов, острот и пародий, о страстях и страстишках человеческих.Дата премьеры (мир): 11 января 2013
Дата премьеры (РФ): 1 января 2013, «Парадиз»

Качество: BDRip |Сэмпл
Продолжительность: 01:39:30


Формат: AVI
Видео кодек: XviD
Аудио кодек: AC3
Видео: 720x400 (16:9), 24.000 fps, XviD build 65 ~1646 kbps avg, 0.238 bit/pixel
Аудио: 48 kHz, AC3 Dolby Digital, 3/2 (L,C,R,l,r) + LFE ch, ~448.00 kbps avg


MediaInfo ▼TextGeneral
Format : AVI
Format/Info : Audio Video Interleave
File size : 1.46 GiB
Duration : 1h 39mn
Overall bit rate : 2 104 Kbps
Writing application : VirtualDubModRus 1.5.10.2 (build 2542/release)
Writing library : VirtualDubMod build 2542/release

Video
ID : 0
Format : MPEG-4 Visual
Format profile : Advanced [email protected]
Format settings, BVOP : 1
Format settings, QPel : No
Format settings, GMC : No warppoints
Format settings, Matrix : Custom
Codec ID : XVID
Codec ID/Hint : XviD
Duration : 1h 39mn
Bit rate : 1 646 Kbps
Width : 720 pixels
Height : 400 pixels
Display aspect ratio : 16:9
Frame rate : 24.000 fps
Color space : YUV
Chroma subsampling : 4:2:0
Bit depth : 8 bits
Scan type : Progressive
Compression mode : Lossy
Bits/(Pixel*Frame) : 0.238
Stream size : 1.14 GiB (78%)
Writing library : XviD 64

Audio
ID : 1
Format : AC-3
Format/Info : Audio Coding 3
Mode extension : CM (complete main)
Format settings, Endianness : Big
Codec ID : 2000
Duration : 1h 39mn
Bit rate mode : Constant
Bit rate : 448 Kbps
Channel(s) : 6 channels
Channel positions : Front: L C R, Side: L R, LFE
Sampling rate : 48.0 KHz
Bit depth : 16 bits
Compression mode : Lossy
Stream size : 319 MiB (21%)
Alignment : Split accross interleaves
Interleave, duration : 42 ms (1.00 video frame)
Interleave, preload duration : 500 ms


Релиз Группы "Virtus"

Стол заказов / Вступление в РГ / Благодарности, критика и другое


28bf5065d5207e5e0b08388c88feb692572fccdbМуви 43 / Movie 43 (Стивен Брилл, Питер Фаррелли, Элизабет БэнксСтивен, комедия, 2013) [BDRip, Профессиональный (полное дублирование)] Муви 43 / Movie 43 (Стивен Брилл, Питер Фаррелли, Элизабет БэнксСтивен, комедия, 2013) [BDRip, Профессиональный (полное дублирование)] " />

Аплоадер: Админ, дата: 26-02-2013, 00:49, торрент скачан: 359 раз

Понравилась раздача? Посмотрите эти:
  • Муви 43 / Movie 43 (Стивен Брилл, Питер Фаррелли, Боб Оденкирк, Комедия ...
  • Муви 43 / Movie 43 (Стивен Брилл, Питер Фаррелли, Боб Оденкирк, комедия, 20 ...
  • [LT]+[EN] Муви 43 / Movie 43 (Стивен Брилл, Питер Фаррелли, Боб Оденкёрк, к ...
  • Муви 43 / Movie 43 (Стивен Брилл, Питер Фаррелли, Боб Оденкёрк, комедия, 20 ...
  • Муви 43 / Movie 43 (Стивен Брилл, Питер Фаррелли, Боб Оденкирк, Комедия, 20 ...
  • Муви 43 / Movie 43 (Стивен Брилл, Питер Фаррелли, Элизабет БэнксСтивен, ком ...
  • Муви 43 / Movie 43 (Стивен Брилл, Питер Фаррелли, Боб Оденкирк, Комедия, 20 ...
  • Муви 43 / Movie 43 (Стивен Брилл, Питер Фаррелли, Боб Оденкирк, Комедия, 20 ...
  • Муви 43 / Movie 43 (Стивен Брилл, Питер Фаррелли, Боб Оденкирк, комедия, 20 ...
  • Муви 43 / Movie 43 (Стивен Брилл, Питер Фаррелли, Элизабет БэнксСтивен, ком ...
  • Муви 43 / Movie 43 (Стивен Брилл, Питер Фаррелли, Элизабет БэнксСтивен, ком ...
  • Муви 43 / Movie 43 (Стивен Брилл, Питер Фаррелли, Элизабет БэнксСтивен, ком ...
  • Муви 43 / Movie 43 (Стивен Брилл, Питер Фаррелли, Элизабет БэнксСтивен, ком ...
  • Муви 43 / Movie 43 (Стивен Брилл, Питер Фаррелли, Боб Оденкирк, комедия, 20 ...
  • Муви 43 / Movie 43 (Стивен Брилл, Питер Фаррелли, Элизабет БэнксСтивен, ком ...
  • Муви 43 / Movie 43 (Стивен Брилл, Питер Фаррелли, Боб Оденкирк, Комедия, 20 ...
  • Муви 43 / Movie 43 (Стивен Брилл, Питер Фаррелли, Боб Оденкирк, комедия, 20 ...
  • Муви 43 / Movie 43 (Стивен Брилл, Питер Фаррелли, Элизабет БэнксСтивен, ком ...
  • Муви 43 / Movie 43 (Стивен Брилл, Питер Фаррелли, Боб Оденкирк, комедия, 20 ...
  • Муви 43 / Movie 43 (Стивен Брилл, Питер Фаррелли, Боб Оденкирк, комедия, 20 ...
  • Муви 43 / Movie 43 (Стивен Брилл, Питер Фаррелли, Боб Оденкирк, комедия, 20 ...
  • Муви 43 / Movie 43 (Стивен Брилл, Питер Фаррелли, Элизабет БэнксСтивен, ком ...
  • Муви 43 / Movie 43 (Стивен Брилл, Питер Фаррелли, Боб Оденкирк, комедия, 20 ...
  • Муви 43 / Movie 43 (Стивен Брилл, Питер Фаррелли, Боб Оденкирк,... Комедия, ...
  • [Трейлер] Муви 43 / Movie 43 (Питер Фаррелли, комедия) [HDRip, Гоблин](1 ян ...
  • Информация
    Посетители, находящиеся в группе Гости, не могут оставлять комментарии к данной публикации.