вход на сайт

Имя пользователя :
Пароль :

Восстановление пароля Регистрация
Магазин самоубийств / Le magasin des suicides (Патрис Леконт, мультфильм, мюзикл, комедия, 2012) [HDRip, Профессиональный (многоголосый закадровый)]
Рейтинг:
(голосов: 1)



[img]{THEME}/images/logopost.png[/img]



Магазин самоубийств / Le magasin des suicides

Год выпуска: 2012
Страна: Франция, Канада, Бельгия
Производство: ARP Sélection
Жанр: мультфильм, мюзикл, комедия

Режиссёр: Патрис Леконт
В ролях: Бернар Алан, Изабель Спад, Кейси Моттет Кляйн, Изабель Джани, Лоран Жандрон, Пьер-Франсуа Мартен-Лаваль, Эрик Метайе, Жак Мату, Юрбен Канселье, Паскаль Парментье...

Перевод: Профессиональный (многоголосый, закадровый)
Субтитры: Oтсутствуют

Описание: В неком городе, где жизнь невероятно уныла и невыносима, на протяжении многих поколений процветает магазин, который торгует всем необходимым для совершения самоубийств. Всё идёт замечательно до тех пор, пока в семье владельца этого магазина не рождается Алан — жизнелюбивый и весёлый малыш.Релиз от:
Автор рипа: Yarmak23

Качество: HDRip |исходник: BDRip 720p|
Продолжительность: 01:19:06

Формат: AVI
Видео кодек: XviD
Аудио кодек: AC3
Видео: 720x400 (16:9), 24.000 fps, XviD 65 ~2 179 kbps avg, 0.315 bit/pixel
Аудио: 48 kHz, AC3 Dolby Digital, 3/2 (L,C,R,l,r) + LFE ch, 448.00 kbps avg
Дата премьеры (мир): 24 мая 2012
Дата премьеры (РФ): 7 марта 2013, «Премиум Фильм» 3D

"MediaInfo" ▼General
Complete name : Le.magasin.des.suicides.2012.P.HDRip.1.45GB_by_Yarmak23.avi
Format : AVI
Format/Info : Audio Video Interleave
File size : 1.46 GiB
Duration : 1h 19mn
Overall bit rate : 2 636 Kbps
Writing application : VirtualDubMod 1.5.10.3 | www.virtualdub-fr.org || (build 2550/release)
Writing library : VirtualDubMod build 2550/release
Video
ID : 0
Format : MPEG-4 Visual
Format profile : Advanced [email protected]
Format settings, BVOP : 1
Format settings, QPel : No
Format settings, GMC : No warppoints
Format settings, Matrix : Custom
Codec ID : XVID
Codec ID/Hint : XviD
Duration : 1h 19mn
Bit rate : 2 179 Kbps
Width : 720 pixels
Height : 400 pixels
Display aspect ratio : 16:9
Frame rate : 24.000 fps
Color space : YUV
Chroma subsampling : 4:2:0
Bit depth : 8 bits
Scan type : Progressive
Compression mode : Lossy
Bits/(Pixel*Frame) : 0.315
Stream size : 1.20 GiB (83%)
Writing library : XviD 65
Audio
ID : 1
Format : AC-3
Format/Info : Audio Coding 3
Mode extension : CM (complete main)
Format settings, Endianness : Big
Codec ID : 2000
Duration : 1h 19mn
Bit rate mode : Constant
Bit rate : 448 Kbps
Channel(s) : 6 channels
Channel positions : Front: L C R, Side: L R, LFE
Sampling rate : 48.0 KHz
Bit depth : 16 bits
Compression mode : Lossy
Stream size : 253 MiB (17%)
Alignment : Split accross interleaves
Interleave, duration : 42 ms (1.00 video frame)
Interleave, preload duration : 500 ms






ffa8af44499c09fd648b823091441db6701cef99Магазин самоубийств / Le magasin des suicides (Патрис Леконт, мультфильм, мюзикл, комедия, 2012) [HDRip, Профессиональный (многоголосый закадровый)] Магазин самоубийств / Le magasin des suicides (Патрис Леконт, мультфильм, мюзикл, комедия, 2012) [HDRip, Профессиональный (многоголосый закадровый)] " />

Аплоадер: Админ, дата: 24-02-2013, 19:07, торрент скачан: 359 раз

Понравилась раздача? Посмотрите эти:
  • Погнали! / Getaway (Кортни Соломон, Боевик, Криминал, 2013) [HDRip, Професс ...
  • Верное дельце / Une pure affaire (Александр Коффре, Боевик, Комедия, Кримин ...
  • Мои герои / Mes heros (Эрик Беснард, комедия, 2012) [HDRip, Профессиональны ...
  • Мой лучший друг / Mon meilleur ami (Патрис Леконт, Комедия, 2006) [DVDRip, ...
  • Магазинчик самоубийств 3D / Le magasin des suicides (Патрис Леконт, мультфи ...
  • [3D] Магазинчик самоубийств / Le magasin des suicides (Патрис Леконт, мульт ...
  • [3D] Магазинчик самоубийств / Le magasin des suicides (Патрис Леконт, мульт ...
  • Любовь на кончиках пальцев / Populaire (Режис Ройнсар, Мелодрама, комедия, ...
  • Безопасность не гарантируется / Safety Not Guaranteed (Колин Треворроу, фан ...
  • Любовь на кончиках пальцев / Populaire (Режис Ройнсар, Мелодрама, комедия, ...
  • В хлам / Smashed (Джеймс Понсольдт, Драма, комедия, 2012) [HDRip, Профессио ...
  • Магазин самоубийств / Le magasin des suicides (Патрис Леконт, мультфильм, м ...
  • Магазин самоубийств / Le magasin des suicides (Патрис Леконт, Мультфильм, м ...
  • Суперстар / Superstar (Ксавье Джианноли, Драма, комедия, 2012) [HDRip, Проф ...
  • Простые истины / Straight As (Джеймс Кокс, драма, комедия, 2013) [HDRip, П ...
  • Доля ангелов / The Angels Share (Кен Лоуч, драма, комедия, 2012) [HDRip, Пр ...
  • Супер циклон / Super Cyclone (Лиз Адамс / Liz Adams, боевик, 2012) [HDRip, ...
  • Захват / Carjacked (Джон Бонито, триллер, 2011)[BDRip, Профессиональный (мн ...
  • Вишенка на новогоднем торте / La cerise sur le gвteau (Лаура Моранте, Комед ...
  • [3D] Магазин самоубийств 3D трейлер / Le magasin des suicides 3D trailer ( ...
  • Супершторм в Сиэтле / Seattle Superstorm (Джейсон Бурк, фантастика, боевик ...
  • Три балбеса / The Three Stooges (Бобби Фаррелли, Питер Фаррелли, Комедия, 2 ...
  • Девушки в опасности / Damsels in Distress (Уит Стиллман, драма, мелодрама, ...
  • Глаз шторма / The Eye of the Storm (Фред Скеписи, Драма, 2011) [HDRip, Проф ...
  • Искажение / Skew (Сейв Челенз, ужасы, триллер, 2011) [HDRip, Профессиональн ...
  • Информация
    Посетители, находящиеся в группе Гости, не могут оставлять комментарии к данной публикации.