вход на сайт

Имя пользователя :
Пароль :

Восстановление пароля Регистрация
Мужчина нарасхват / Playing for Keeps (Габриэле Муччино, Мелодрама, комедия, 2012) [BDRip, Профессиональный (полное дублирование)]
Рейтинг:
(голосов: 1)



[img]{THEME}/images/logopost.png[/img]



• Мужчина нарасхват / Playing for Keeps •
-

Год выпуска: 2012
Страна: США
Производство: clectic Pictures, Evil Twins (I), Millennium Films
Жанр: Мелодрама, комедия

Режиссёр: Габриэле Муччино
В ролях: Джерард Батлер, Джессика Бил, Ума Турман, Кэтрин Зета-Джонс, Деннис Куэйд, Ной Ломакс, Джеймс Таппер, Джуди Грир, Абелла Уайсс, Грант Гудман

Перевод: Профессиональный (полное дублирование)
Субтитры: Нет

Описание: Звезда футбола и просто шикарный мужчина по воле случая становится тренером детской футбольной команды. С этого момента для своих подопечных и их обольстительных мамочек он — «Мужчина нарасхват»…Дата премьеры (мир): 5 декабря 2012
Дата премьеры (РФ): 6 декабря 2012, «UPI»

Качество: BDRip |Сэмпл
Продолжительность: 01:45:37


Формат: AVI
Видео кодек: XviD
Аудио кодек: AC3
Видео: 720x304 (2.35:1), 23.976 fps, XviD build 65 ~1519 kbps avg, 0.29 bit/pixel
Аудио: 48 kHz, AC3 Dolby Digital, 3/2 (L,C,R,l,r) + LFE ch, ~448.00 kbps avg


MediaInfo ▼TextGeneral
Format : AVI
Format/Info : Audio Video Interleave
File size : 1.46 GiB
Duration : 1h 45mn
Overall bit rate : 1 977 Kbps
Video #0
ID : 0
Format : MPEG-4 Visual
Format profile : Advanced [email protected]
Format settings, BVOP : Yes
Format settings, QPel : No
Format settings, GMC : No warppoints
Format settings, Matrix : Default (MPEG)
Codec ID : XVID
Codec ID/Hint : XviD
Duration : 1h 45mn
Bit rate : 1 519 Kbps
Width : 720 pixels
Height : 304 pixels
Display aspect ratio : 2.35:1
Frame rate : 23.976 fps
Color space : YUV
Chroma subsampling : 4:2:0
Bit depth : 8 bits
Scan type : Progressive
Compression mode : Lossy
Bits/(Pixel*Frame) : 0.290
Stream size : 1.12 GiB (77%)
Writing library : XviD 64
Audio #1
ID : 1
Format : AC-3
Format/Info : Audio Coding 3
Mode extension : CM (complete main)
Codec ID : 2000
Duration : 1h 45mn
Bit rate mode : Constant
Bit rate : 448 Kbps
Channel(s) : 6 channels
Channel positions : Front: L C R, Side: L R, LFE
Sampling rate : 48.0 KHz
Bit depth : 16 bits
Compression mode : Lossy
Stream size : 338 MiB (23%)
Alignment : Aligned on interleaves
Interleave, duration : 42 ms (1.00 video frame)


Релиз Группы "Virtus"

Стол заказов / Вступление в РГ / Благодарности, критика и другое


292288ce1e8a41c0c3ee0df6a706bf4b63670c49Мужчина нарасхват / Playing for Keeps (Габриэле Муччино, Мелодрама, комедия, 2012) [BDRip, Профессиональный (полное дублирование)] Мужчина нарасхват / Playing for Keeps (Габриэле Муччино, Мелодрама, комедия, 2012) [BDRip, Профессиональный (полное дублирование)] " />

Аплоадер: Админ, дата: 24-02-2013, 15:51, торрент скачан: 359 раз

Понравилась раздача? Посмотрите эти:
  • [iPhone, iPod] Мужчина нарасхват / Playing for Keeps (Габриэле Муччино, мел ...
  • Мужчина нарасхват / Playing for Keeps (Габриэле Муччино, мелодрама, комедия ...
  • Мужчина нарасхват / Playing for Keeps (Габриэле Муччино, мелодрама, комедия ...
  • Мужчина нарасхват / Playing for Keeps (Габриэле Муччино, мелодрама, комедия ...
  • Мужчина нарасхват / Playing for Keeps (Габриэле Муччино, Мелодрама, комедия ...
  • Мужчина нарасхват / Playing for Keeps (Габриэле Муччино, Мелодрама, Комедия ...
  • Муви 43 / Movie 43 (Стивен Брилл, Питер Фаррелли, Элизабет БэнксСтивен, ком ...
  • Муви 43 / Movie 43 (Стивен Брилл, Питер Фаррелли, Элизабет БэнксСтивен, ком ...
  • Весенние надежды / Hope Springs (Дэвид Фрэнкел, Драма, мелодрама, комедия, ...
  • Покорители Волн / Chasing Mavericks (Майкл Эптед, Кёртис Хэнсон, Драма, спо ...
  • Экипаж / Flight (Роберт Земекис, Драма, 2012) [BDRip, Профессиональный (пол ...
  • Мужчина нарасхват / Playing for Keeps (Габриэле Муччино, мелодрама, комедия ...
  • Мужчина нарасхват / Playing for Keeps (Габриэле Муччино, мелодрама, комедия ...
  • Мужчина нарасхват / Playing for Keeps (Габриэле Муччино, мелодрама, комедия ...
  • Мужчина нарасхват / Playing for Keeps (Габриэле Муччино, мелодрама, комедия ...
  • В доме / Dans la maison (Франсуа Озон, Триллер, детектив, 2012) [HDRip, Про ...
  • Мужчина нарасхват / Playing for Keeps (Габриэле Муччино, мелодрама, комедия ...
  • Мужчина нарасхват / Playing for Keeps (Габриэле Муччино, мелодрама, комедия ...
  • Tank Feat. T.I. & Kris Stephens / Compliments [2012, RnB,Hip-Hop, HDRip]
  • [Трейлер] Мужчина нарасхват / Playing for Keeps (Габриэле Муччино, драма, к ...
  • Информация
    Посетители, находящиеся в группе Гости, не могут оставлять комментарии к данной публикации.